Скачать через торрент Аншлаг. Светлана Рожкова и Игорь Маменко 2018.04.27 Фильм бесплатно в хорошем качестве torrent

Скачивайте на UnionPeer.org фильмы через торрент без регистрации. Новинки кино в хорошем качестве через торрент. На UnionPeer.org можно скачать через торрент фильмы 2014 и 2015 годов. Самые новые фильмы.

Скачать торрент Аншлаг. Светлана Рожкова и Игорь Маменко 2018.04.27 бесплатно через .torrent фильм мультфильм сериал

Статистика раздачи
Размер:  7.98 GB   |    Зарегистрирован:  6 месяцев   |    .torrent скачан:  33 раза   |   
Раздают:  1  
   
загрузка...
 
Автор Сообщение

Galfimbul

avatar Galfimbul


Аншлаг. Светлана Рожкова и Игорь Маменко 2018.04.27

Дата/Год выпуска: 2018
Страна: Россия
Жанр: Юмор
Продолжительность: 02:11:29
Перевод: Не требуется
Русские субтитры: нет

Оригинальная аудиодорожка: русский
Описание: Сегодня в "Аншлаге" - бенефис Светланы Рожковой и Игоря Маменко!
Компанию им составят: Владимир Данилец, Владимир Моисеенко, Юрий Евдокунин и Сергей Дроботенко.

качество: HDTV 1080i
формат: TS
Видео кодек: H.264
Аудио кодек: MP2
Видео: H264; 1920x1080 (16:9); 25.000 fps; ~8 066 kb/s
Аудио: MPEG Audio 48000Hz stereo 192 Кбит/сек
GeneralID : 1 (0x1)Complete name : C:\Аншлаг. Светлана Рожкова и Игорь Маменко 2018.04.27.tsFormat : MPEG-TSFile size : 7.98 GiBDuration : 2 h 11 minOverall bit rate mode : VariableOverall bit rate : 8 690 kb/s

VideoID : 2292 (0x8F4)Menu ID : 2291 (0x8F3)Format : AVCFormat/Info : Advanced Video CodecFormat profile : High@L4Format settings : CABAC / 4 Ref FramesFormat settings, CABAC : YesFormat settings, RefFrames : 4 framesFormat settings, GOP : M=4, N=32Codec ID : 27Duration : 2 h 11 minBit rate : 8 066 kb/sWidth : 1 920 pixelsHeight : 1 080 pixelsDisplay aspect ratio : 16:9Frame rate : 25.000 FPSStandard : ComponentColor space : YUVChroma subsampling : 4:2:0Bit depth : 8 bitsScan type : InterlacedScan type, store method : Separated fieldsScan order : Top Field FirstBits/(Pixel*Frame) : 0.156Stream size : 7.41 GiB (93%)Color range : LimitedColor primaries : BT.709Transfer characteristics : BT.709Matrix coefficients : BT.709

AudioID : 2295 (0x8F7)Menu ID : 2291 (0x8F3)Format : MPEG AudioFormat version : Version 1Format profile : Layer 2Codec ID : 3Duration : 2 h 11 minBit rate mode : ConstantBit rate : 192 kb/sChannel(s) : 2 channelsSampling rate : 48.0 kHzCompression mode : LossyStream size : 181 MiB (2%)Language : Russian
0


Трекер:  [ 28-Апр-2018 07:42 ]

  

Скачать .torrent

Размер .torrent файла 40 KB


Размер: 7.98 GB
Хэш (hash) релиза: 3c2c3d453440314d633a4f5b24346dd3bdf0891f
Подписка на обновления:

Торренты, похожие на Аншлаг. Светлана Рожкова и Игорь Маменко 2018.04.27 скачать торрент

Форум Название Автор Размер S L Добавлен
Развлекательные телепередачи и шоу ·· Аншлаг. Светлана Рожкова и Игорь Маменко 2018.04.27 [2018, Юмор, HDTVRip720p] Galfimbul 26567471122.47 GB 0 0 1524982328

09:12

29-Апр-18

Еще никто не оставлял запись к записи скачать торрент Аншлаг. Светлана Рожкова и Игорь Маменко 2018.04.27 . Будь первым!

!Обратная связь