Скачать через торрент Близкие Фильм бесплатно в хорошем качестве torrent

Скачивайте на UnionPeer.org фильмы через торрент без регистрации. Новинки кино в хорошем качестве через торрент. На UnionPeer.org можно скачать через торрент фильмы 2014 и 2015 годов. Самые новые фильмы.

Скачать торрент Близкие бесплатно через .torrent фильм мультфильм сериал

Статистика раздачи
Размер:  3.05 GB   |    Зарегистрирован:  3 месяца 21 день   |    .torrent скачан:  230 раз   |   
Раздают:  2  
   
загрузка...
 
Автор Сообщение

Galfimbul

avatar Galfimbul


Близкие

Год выхода: 2017
Жанр: Драма
Режиссер: Ксения Зуева
В ролях: Елена Чекмазова, Андрей Стоянов, Надежда Иванова, Данил Можаев, Лариса Морозова, Данил Стеклов, Алиса Глинка, Наталья Павленкова, Наталия Меньшова, Геннадий Вырыпаев

О фильме: История одной семьи, проживающей на окраине Москвы. Члены семьи погрязли в семейных ссорах, живут в дискомфорте, в давящей атмосфере и обрушивают свои негативные эмоции друг на друга, забыв о любви, забыв, кем они приходятся друг другу, забыв о сострадании и Боге. Одна большая трагедия заставит их очнуться, измениться и испытать катарсис, но будет уже поздно.


Страна: Россия
Студия: OvalGrid, ВЕГА Фильм
Продолжительность: 01:44:11
Перевод: Оригинальный

Файл
Кодек: MPEG-4 AVC
Качество: WEB-DL 1080p
Видео: 1912x1032, 3996kb/s, 24.000fps
Звук: 192kb/s, 2ch 48000kHz, AC3
Субтитры: Отсутствуют

РЕКЛАМА ОТСУТСТВУЕТ
Общее
Уникальный идентификатор : 233841076836339822252026299965840862091 (0xAFEC2738D0C72F5DA49FE26668BCAB8B)
Полное имя : C:UsersRomaHomeVideosБлизкие RUS [WEB-DL 1080p].mkv
Формат : Matroska
Версия формата : Version 4 / Version 2
Размер файла : 3,05 Гбайт
Продолжительность : 1 ч. 44 м.
Общий поток : 4190 Кбит/сек
Название фильма : Blizkye.2017.WEB-DL.(1080p).Getty
Дата кодирования : UTC 2018-04-28 19:09:11
Программа кодирования : mkvmerge v7.8.0 ('River Man') 32bit built on Mar 27 2015 16:18:02
Библиотека кодирования : libebml v1.3.1 + libmatroska v1.4.2

Видео
Идентификатор : 1
Формат : AVC
Формат/Информация : Advanced Video Codec
Профиль формата : High@L4
Настройки формата : CABAC / 3 Ref Frames
Параметр CABAC формата : Да
Параметр RefFrames формата : 3 кадра
Параметр GOP формата : M=1, N=72
Идентификатор кодека : V_MPEG4/ISO/AVC
Продолжительность : 1 ч. 44 м.
Битрейт : 3996 Кбит/сек
Ширина : 1912 пикселей
Высота : 1032 пикселя
Соотношение сторон : 1,85:1
Режим частоты кадров : Постоянный
Частота кадров : 24,000 кадра/сек
Цветовое пространство : YUV
Субдискретизация насыщенности : 4:2:0
Битовая глубина : 8 бит
Тип развёртки : Прогрессивная
Бит/(Пиксели*Кадры) : 0.084
Размер потока : 2,91 Гбайт (95%)
Default : Да
Forced : Нет

Аудио
Идентификатор : 2
Формат : AC-3
Формат/Информация : Audio Coding 3
Идентификатор кодека : A_AC3
Продолжительность : 1 ч. 44 м.
Вид битрейта : Постоянный
Битрейт : 192 Кбит/сек
Каналы : 2 канала
Расположение каналов : Front: L R
Частота : 48,0 КГц
Частота кадров : 31,250 кадров/сек (1536 SPF)
Битовая глубина : 16 бит
Метод сжатия : С потерями
Размер потока : 143 Мбайт (5%)
Default : Да
Forced : Нет
Источник http://blator.org

Трекер:  [ 29-Апр-2018 15:20 ]

  

Скачать .torrent

Размер .torrent файла 16 KB


Размер: 3.05 GB
Хэш (hash) релиза: 0078140baa80fbad0f859b8c7d1d3282d115c9e6
Подписка на обновления:

Торренты, похожие на Близкие скачать торрент

Форум Название Автор Размер S L Добавлен
Зарубежные фильмы до 2016 ·· Близкие враги / Враг близко / Плохая страна / Enemies Closer (Питер Хаймс / Peter Hyams) [2013, США, Канада, боевик, триллер, криминал, BDRip] MVO (Кинопоказ) + Original Eng Galfimbul 15616122881.45 GB 0 0 1417189272

18:41

28-Ноя-14

Зарубежные фильмы 2016-2018 (Новинки зарубежного кино) ·%· Близкий дух / Pyewacket (2017) HDRip-AVC от ExKinoRay | L Galfimbul 782378523746 MB 0 0 1531891258

08:20

18-Июл-18

Зарубежные фильмы 2016-2018 (Новинки зарубежного кино) ·%· Близкий дух / Pyewacket (2017) BDRip 1080p | L Galfimbul 72834351496.78 GB 0 0 1531808416

09:20

17-Июл-18

Зарубежные фильмы 2016-2018 (Новинки зарубежного кино) ·· Как близко к солнцу / Au plus pr?s du soleil (Ив Анжело) [2015, драма, DVDRip] GreenРай Studio Galfimbul 14765977601.38 GB 0 0 1528207221

17:00

5-Июн-18

Документальные фильмы и телепередачи ·· Тайны космоса: Близкая бесконечность, Кто там в космосе, Планеты, Пятый астронавт [Док. фильм, DVD5] Galfimbul 46808412164.36 GB 0 0 1524222380

14:06

20-Апр-18

Зарубежные фильмы 2016-2018 (Новинки зарубежного кино) ·· Близкий дух / Pyewacket (Адам МакДональд / Adam MacDonald) [2017, Канада, ужасы, триллер, WEB-DLRip] DVO (HiWay Grope) Galfimbul 15630417921.46 GB 0 0 1522641668

07:01

2-Апр-18

Зарубежные фильмы 2016-2018 (Новинки зарубежного кино) ·· Близкий дух / Pyewacket (Адам МакДональд) [2017, Триллер, WEB-DLRip] Galfimbul 14591385601.36 GB 0 0 1522507833

17:50

31-Мар-18

Зарубежные фильмы 2016-2018 (Новинки зарубежного кино) ·· Близкий дух / Pyewacket (Адам МакДональд) [2017, Триллер, WEB-DL 1080p] Galfimbul 35042654433.26 GB 0 0 1522507822

17:50

31-Мар-18

Зарубежные фильмы 2016-2018 (Новинки зарубежного кино) ·· Близкий дух / Pyewacket (Адам МакДональд) [2017, Триллер, WEBRip 720p] Galfimbul 28872687552.69 GB 0 0 1522425040

18:50

30-Мар-18

Зарубежные фильмы 2016-2018 (Новинки зарубежного кино) ·· Близкий дух / Pyewacket (Адам МакДональд) [2017, Триллер, WEBRip] Galfimbul 14423613441.34 GB 0 0 1522425026

18:50

30-Мар-18

Зарубежные сериалы ·· Так близко / This Close / Сезон: 1 / Серии: 1-2 из 6 (Джош Фелдмен) [2018, США, Драма, комедия, WEB-DL 720p] MVO (Jaskier) Galfimbul 933458599890 MB 0 0 1520869724

18:48

12-Мар-18

Зарубежные сериалы ·· Так близко / This Close / Сезон: 1 / Серии: 1-2 из 6 (Джош Фелдмен) [2018, США, Драма, комедия, WEB-DLRip] MVO (Jaskier) Galfimbul 669014016638 MB 0 0 1520869691

18:48

12-Мар-18

Зарубежные фильмы 2016-2018 (Новинки зарубежного кино) ·· Угроза близко / Danger Close (2017) HDRip 720p | GreenРай Studio Galfimbul 28661472142.67 GB 0 0 1517928068

17:41

6-Фев-18

Развлекательные телепередачи и шоу ·· Герыч и Человек, вступивший с дубом в близкие контакты третьей степени / Hercules: The Legendary Journeys / Серии: 01-02 [2017, смешной перевод, пародия, комедия, TVRip][студия 2-D] AVO Galfimbul 13789714121.28 GB 0 0 1512506940

23:49

5-Дек-17

Зарубежные фильмы до 2016 ·· Близкие Враги / L'Ennemi Intime (Флорент Эмилио Сири) [2007, Франция, Драма, военный, история, DVD5] Galfimbul 46381199364.32 GB 0 0 1505478982

15:36

15-Сен-17

Зарубежные фильмы до 2016 ·· Место под солнцем / Как близко к солнцу / Au plus pres du soleil / Too Close to Our Son (Ив Анжело / Yves Angelo) [2015, Франция, драма, DVB] Original (Fre) + Sub (Rus, Eng, Fre, Deu) Galfimbul 24761027022.31 GB 0 0 1502688610

08:30

14-Авг-17

Зарубежные фильмы до 2016 ·· Жутко громко и запредельно близко / Extremely Loud & Incredibly Close (Стивен Долдри / Stephen Daldry) [2011, США, драма, детектив, приключения, HDTV 1080p] [Open Matte] MVO (R5) Galfimbul 38981283003.63 GB 0 0 1498570551

16:35

27-Июн-17

Зарубежные фильмы до 2016 ·· Жутко громко и запредельно близко / Extremely Loud & Incredibly Close (Стивен Долдри / Stephen Daldry) [2011, США, драма, детектив, приключения, HDTVRip] [Open Matte] MVO (R5) Galfimbul 15599656961.45 GB 0 0 1498419013

22:30

25-Июн-17

Зарубежные фильмы до 2016 ·· Близкие враги / L'Ennemi intime (Флорент Эмилио Сири) [2007, Драма, военный, история, BDrip] Galfimbul 61390072695.72 GB 0 0 1495194480

14:48

19-Май-17

Еще никто не оставлял запись к записи скачать торрент Близкие . Будь первым!

!Обратная связь