Скачать через торрент Доченька Ona qizim Фильм бесплатно в хорошем качестве torrent

Скачивайте на UnionPeer.org фильмы через торрент без регистрации. Новинки кино в хорошем качестве через торрент. На UnionPeer.org можно скачать через торрент фильмы 2014 и 2015 годов. Самые новые фильмы.

Скачать торрент Доченька Ona qizim бесплатно через .torrent фильм мультфильм сериал

Статистика раздачи
Размер:  1.38 GB   |    Зарегистрирован:  5 месяцев 8 дней   |    .torrent скачан:  18 раз   |   
Раздают:  1  
   
загрузка...
 
Автор Сообщение

Galfimbul

avatar Galfimbul


Доченька
Ona qizim
Страна: Узбекистан
Жанр: драма, мелодрама, триллер
Продолжительность: 01:30:50
Год выпуска: 2017
Перевод: Профессиональный (многоголосый закадровый)
Субтитры: отсутствуют
Режиссёр: Дилшод Ахмедов: Dilshod Ahmedov
В ролях: Шавкат Комилов, Феруза Норматова, Лола Примкулова, Бахора Арслонова, Саида Саидбекова, Акмал Назаров.
Описание: Очередная узбекская драма "Ona qizim", название которой переводится на русский как "Доченька".
Семпл: https://www.sendspace.com/file/g6t4xj
Качество: DVB [ASTANA TV] (эфир 12.05.2018)
Формат: TS
Видео: AVC, 720x576 (16:9) @ 1047x576, 25 fps, ~1872 kbps, 0.181 bit/pixel
Аудио: [RUS] 48 kHz, MP2, 2 ch, 192 kbps
ОбщееИдентификатор : 1 (0x1)Полное имя : F:\Доченька (2017) [ASTANA TV].tsФормат : MPEG-TSРазмер файла : 1,38 ГбайтПродолжительность : 1 ч. 30 м.Режим общего битрейта : ПеременныйОбщий поток : 2173 Кбит/сек

ВидеоИдентификатор : 67 (0x43)Идентификатор меню : 1 (0x1)Формат : AVCФормат/Информация : Advanced Video CodecПрофиль формата : High@L3Параметр CABAC формата : ДаПараметр RefFrames формата : 3 кадраИдентификатор кодека : 27Продолжительность : 1 ч. 30 м.Битрейт : 1872 Кбит/секШирина : 720 пикселейВысота : 576 пикселейСоотношение сторон : 16:9Частота кадров : 25,000 кадров/секСтандарт вещания : ComponentЦветовое пространство : YUVСубдискретизация насыщенности : 4:2:0Битовая глубина : 8 битТип развёртки : ЧересстрочнаяМетод сохранения типа развёртки : Раздельные поляПорядок развёртки : Верхнее поле первоеБит/(Пиксели*Кадры) : 0.181Размер потока : 1,19 Гбайт (86%)Цветовой диапазон : LimitedОсновные цвета : BT.601 PALХарактеристики трансфера : BT.470 System B, BT.470 System GКоэффициенты матрицы : BT.470 System B, BT.470 System G

АудиоИдентификатор : 68 (0x44)Идентификатор меню : 1 (0x1)Формат : MPEG AudioВерсия формата : Version 1Профиль формата : Layer 2Идентификатор кодека : 3Продолжительность : 1 ч. 30 м.Вид битрейта : ПостоянныйБитрейт : 192 Кбит/секКаналы : 2 каналаЧастота : 48,0 КГцМетод сжатия : С потерямиЗадержка видео : -40 мс.Размер потока : 125 Мбайт (9%)Язык : English


Трекер:  [ 14-Май-2018 13:24 ]

  

Скачать .torrent

Размер .torrent файла 14 KB


Размер: 1.38 GB
Хэш (hash) релиза: b1162cb10d7cf989f7f7eb1df4d6a28d93f76cd4
Подписка на обновления:

Еще никто не оставлял запись к записи скачать торрент Доченька Ona qizim . Будь первым!

!Обратная связь