Скачать через торрент Супермошенники Supercon Фильм бесплатно в хорошем качестве torrent

Скачивайте на UnionPeer.org фильмы через торрент без регистрации. Новинки кино в хорошем качестве через торрент. На UnionPeer.org можно скачать через торрент фильмы 2014 и 2015 годов. Самые новые фильмы.

Скачать торрент Супермошенники Supercon бесплатно через .torrent фильм мультфильм сериал

Статистика раздачи
Размер:  5 GB   |    Зарегистрирован:  7 дней   |    .torrent скачан:  71 раз   |   
Раздают:  1  
   
загрузка...
 
Автор Сообщение

Galfimbul

avatar Galfimbul


Супермошенники /Supercon

Год выхода: 2018
Жанр: комедия
Режиссер: Зак Натсон
В ролях: Мэгги Грэйс, Клэнси Браун, Райан Квантен, Джон Малкович, Майк Эппс, Расселл Питерс, Дэна Снайдер, Кэйли Флеминг, Джош Перри, Джефф Поуп

О фильме:
Конференции, специально устраиваемые для всевозможных фанатов, становятся очень популярными среди современных поклонников различных кумиров. Предприимчивые дельцы не упускают удобной возможности обрести дополнительный способ заработка на любви телезрителей к многочисленным сериалам и кинокартинам. Даже давно устаревшие, закрытые шоу-программы продолжают своим создателям приносить хорошую прибыль, которую, как правило, распределяют между коллегами по цеху. Однако алчный Адам Кинг, являющийся продюсером некогда очень известной космической оперы, предпочитает игнорировать своих соратников, участвующих когда-то в съемках сцен, вызывающих огромный интерес и признание любителей этой программы. Бывшие кинозвезды ведут практически нищенское существование, оставшись давно без источника доходов, а босс наслаждается богатством. Кит был несовершеннолетним мальчишкой, когда создатели телешоу выбрали его кандидатуру на роль обычного мальчика-индуса, соответствующего общепринятым стереотипам. Сейчас он средних достиг лет и серьезный, возрастной переживает кризис. Для Мэтта устаревшее шоу был звездным взлетом в профессиональной карьере, пролетевшим слишком быстро. Сейчас он старается участие в подобных принимать телесъемках, роли второго исполняя плана, чтобы подзаработать на жизнь.



Страна: США
Студия: MOmentum Productions
Продолжительность: 01:39:51
Перевод: Профессиональный многоголосый (HDrezka Studio)

Файл
Кодек: x264
Качество: WEB-DL 1080p
Видео: MPEG-4 AVC, 5998 Kбит/с, 1920x800
Звук #1: AC3, 2 ch, 384 Кбит/с | Rus
Звук #2: EAC3, 6 ch, 640 Кбит/с | Eng
Субтитры: Английские
Формат : Matroska
Версия формата : Version 2
Размер файла : 5,00 Гбайт
Продолжительность : 1 ч. 39 м.
Режим общего битрейта : Переменный
Общий поток : 7165 Кбит/сек
Название фильма : Supercon (2018) WEB-DL 1080p
Дата кодирования : UTC 2018-05-15 06:46:35
Программа кодирования : mkvmerge v5.8.0 ('No Sleep / Pillow') built on Sep 2 2012 15:37:04
Библиотека кодирования : libebml v1.2.3 + libmatroska v1.3.0
Attachements : cover.jpg

Видео
Идентификатор : 1
Формат : AVC
Формат/Информация : Advanced Video Codec
Профиль формата : High@L4
Параметр CABAC формата : Да
Параметр ReFrames формата : 4 кадра
Идентификатор кодека : V_MPEG4/ISO/AVC
Продолжительность : 1 ч. 39 м.
Вид битрейта : Переменный
Битрейт : 5998 Кбит/сек
Максимальный битрейт : 15,0 Мбит/сек
Ширина : 1920 пикселей
Высота : 800 пикселей
Соотношение сторон : 2,40:1
Режим частоты кадров : Постоянный
Частота кадров : 23,976 кадра/сек
Цветовое пространство : YUV
Субдискретизация насыщенности : 4:2:0
Битовая глубина : 8 бит
Тип развёртки : Прогрессивная
Бит/(Пиксели*Кадры) : 0.163
Размер потока : 4,18 Гбайт (84%)
Заголовок : Supercon (2018) WEB-DL 1080p
Default : Да
Forced : Нет
Цветовой диапазон : Limited
Основные цвета : BT.709
Характеристики трансфера : BT.709
Коэффициенты матрицы : BT.709

Аудио #1
Идентификатор : 2
Формат : AC-3
Формат/Информация : Audio Coding 3
Расширение режима : CM (complete main)
Параметр Endianness формата : Big
Идентификатор кодека : A_AC3
Продолжительность : 1 ч. 39 м.
Вид битрейта : Постоянный
Битрейт : 384 Кбит/сек
Каналы : 2 канала
Расположение каналов : Front: L R
Частота : 48,0 КГц
Метод сжатия : С потерями
Размер потока : 274 Мбайт (5%)
Язык : Russian
Default : Да
Forced : Нет

Аудио #2
Идентификатор : 3
Формат : E-AC-3
Формат/Информация : Audio Coding 3
Параметр Endianness формата : Big
Идентификатор кодека : A_EAC3
Продолжительность : 1 ч. 39 м.
Вид битрейта : Постоянный
Битрейт : 640 Кбит/сек
Каналы : 6 каналов
Расположение каналов : Front: L C R, Side: L R, LFE
Частота : 48,0 КГц
Метод сжатия : С потерями
Размер потока : 457 Мбайт (9%)
Язык : English
Default : Нет
Forced : Нет

Текст #1
Идентификатор : 4
Формат : UTF-8
Идентификатор кодека : S_TEXT/UTF8
Идентификатор кодека/Информация : UTF-8 Plain Text
Язык : English
Default : Нет
Forced : Нет

Текст #2
Идентификатор : 5
Формат : UTF-8
Идентификатор кодека : S_TEXT/UTF8
Идентификатор кодека/Информация : UTF-8 Plain Text
Заголовок : SDH
Язык : English
Default : Нет
Forced : Нет
Источник http://yarutor.org

Трекер:  [ 15-Май-2018 11:40 ]

  

Скачать .torrent

Размер .torrent файла 25 KB


Размер: 5 GB
Хэш (hash) релиза: 3e0f056e9f512d8f60015252966aadf9d27ac1f8
Подписка на обновления:

Торренты, похожие на Супермошенники Supercon скачать торрент

Форум Название Автор Размер S L Добавлен
Зарубежные фильмы 2016-2018 (Новинки зарубежного кино) ·· Супермошенники / Supercon (Зак Натсон) [2018, комедия, WEB-DLRip] HDrezka Studio Galfimbul 14713344001.37 GB 0 0 1526301094

15:31

14-Май-18

Еще никто не оставлял запись к записи скачать торрент Супермошенники Supercon . Будь первым!

!Обратная связь