Скачать через торрент Зачинщики Masterminds Фильм бесплатно в хорошем качестве torrent

Скачивайте на UnionPeer.org фильмы через торрент без регистрации. Новинки кино в хорошем качестве через торрент. На UnionPeer.org можно скачать через торрент фильмы 2014 и 2015 годов. Самые новые фильмы.

Скачать торрент Зачинщики Masterminds бесплатно через .torrent фильм мультфильм сериал

Статистика раздачи
Размер:  6.4 GB   |    Зарегистрирован:  5 лет 9 месяцев   |    .torrent скачан:  36 раз   |   
Раздают:  1  
 

Скачать Зачинщики / Masterminds (Джаред Хесс / Jared Hess) [2016, США, Боевик, комедия, криминал, DVD9] R5 Dub через torrent

 
 
Автор Сообщение

Galfimbul

avatar Galfimbul


Зачинщики / Masterminds
«А что бы ты делал с $17 миллионами?»
Страна: США
Студии: Relativity Media, Michaels-Goldwyn, Broadway Video
Жанр: Боевик, комедия, криминал
Год выпуска: 2016
Дата мировой премьеры: 26 сентября 2016
Дата российской премьеры: 29 сентября 2016, «Парадиз»
Дата выхода DVD релиза: 30 января 2017, «Парадиз»
Продолжительность: 01:30:50
Перевод: Профессиональный (дублированный) [Лицензия]
Субтитры: Нет
Оригинальная аудиодорожка: Нет
Режиссер: Джаред Хесс / Jared Hess
Продюсеры: Джон Голдвин, Лорн Майклз, Брент Элмонд
Актеры: Зак Галифианакис, Оуэн Уилсон, Кристен Уиг, Джейсон Судейкис, Росс Кимбелл, Девин Рэтрей, Мэри Элизабет Эллис, Кейт МакКиннон, Лесли Джонс, Джон Дэйли
Описание:
Бывший клерк банка вместе со своей любовницей проворачивает дерзкое ограбление инкассаторской машины и забирает 17 миллионов баксов. Но по неопытности преступники-дебютанты оставляют на месте преступления столько следов и улик, что вряд ли смогут получить удовольствие от добычи.

Доп. материалы: Анонсы

Качество: DVD9 R5
Формат: DVD-Video

Видео: MPEG-2, 720x576@1024x576 (PAL 16:9), ~7800 Кбит/сек
Аудио: AC3 5.1, 448 Кбит/сек [Русский - дублированный]
Title: Masterminds (2016) DVD9 R5
Size: 6.40 Gb ( 6 713 286,00 KBytes ) - DVD-9
Enabled regions: 1, 2, 3, 4, 5, 6, 7, 8

VTS_01 :
Play Length: 00:00:15
Video: PAL 4:3 (720x576) VBR
Audio:
Not specified (Dolby AC3, 2 ch)

VTS_02 :
Play Length: 00:00:16
Video: PAL 16:9 (720x576) VBR, Auto Letterboxed
Audio:
Not specified (Dolby AC3, 2 ch)

VTS_03 :
Play Length: 00:02:38
Video: PAL 16:9 (720x576) VBR, Auto Letterboxed
Audio:
Russian (Dolby AC3, 2 ch)

VTS_04 :
Play Length: 00:02:25
Video: PAL 16:9 (720x576) VBR, Auto Letterboxed
Audio:
Russian (Dolby AC3, 2 ch)

VTS_05 :
Play Length: 00:02:32
Video: PAL 16:9 (720x576) VBR, Auto Letterboxed
Audio:
Russian (Dolby AC3, 2 ch)

VTS_06 :
Play Length: 00:02:14
Video: PAL 16:9 (720x576) VBR, Auto Letterboxed
Audio:
Russian (Dolby AC3, 2 ch)

VTS_07 :
Play Length: 00:03:01
Video: PAL 16:9 (720x576) VBR, Auto Letterboxed
Audio:
Russian (Dolby AC3, 2 ch)

VTS_08 :
Play Length: 00:02:21
Video: PAL 16:9 (720x576) VBR, Auto Letterboxed
Audio:
Russian (Dolby AC3, 2 ch)

VTS_09 :
Play Length: 00:03:37
Video: PAL 16:9 (720x576) VBR, Auto Letterboxed
Audio:
Russian (Dolby AC3, 2 ch)

VTS_10 :
Play Length: 00:02:14
Video: PAL 16:9 (720x576) VBR, Auto Letterboxed
Audio:
Russian (Dolby AC3, 2 ch)

VTS_11 :
Play Length: 00:02:15
Video: PAL 16:9 (720x576) VBR, Auto Letterboxed
Audio:
Russian (Dolby AC3, 2 ch)

VTS_12 :
Play Length: 01:30:50
Video: PAL 16:9 (720x576) VBR, Auto Letterboxed
Audio:
Russian, AC3, 3/2 (L,C,R,SL,SR)+LFE ch, 448 kbps, Delay 0 mSec

VTS_13 :
Play Length: 00:00:01
Video: PAL 16:9 (720x576) VBR, Auto Letterboxed
Audio:
Russian (Dolby AC3, 2 ch)
Общее
Полное имя : G:\Torrents\Masterminds (2016) DVD9 R5\VIDEO_TS\VTS_12_2.VOB
Формат : MPEG-PS
Размер файла : 1000 Мбайт
Продолжительность : 16 м. 35 с.
Режим общего битрейта : Переменный
Общий поток : 8430 Кбит/сек

Видео
Идентификатор : 224 (0xE0)
Формат : MPEG Video
Версия формата : Version 2
Профиль формата : Main@Main
Настройки формата : BVOP
Параметр BVOP формата : Да
Параметр матрицы формата : По умолчанию
Параметр GOP формата : M=3, N=12
Продолжительность : 16 м. 35 с.
Вид битрейта : Переменный
Битрейт : 7814 Кбит/сек
Максимальный битрейт : 8500 Кбит/сек
Ширина : 720 пикселей
Высота : 576 пикселей
Соотношение сторон : 16:9
Частота кадров : 25,000 кадров/сек
Стандарт вещания : PAL
Цветовое пространство : YUV
Субдискретизация насыщенности : 4:2:0
Битовая глубина : 8 бит
Тип развёртки : Прогрессивная
Метод сжатия : С потерями
Бит/(Пиксели*Кадры) : 0.754
Временной код первого кадра : 00:16:53:16
Оригинал временного кода : Group of pictures header
Размер потока : 927 Мбайт (93%)

Аудио
Идентификатор : 189 (0xBD)-128 (0x80)
Формат : AC-3
Формат/Информация : Audio Coding 3
Параметр Endianness формата : Big
Режим смешивания : DVD-Video
Продолжительность : 16 м. 35 с.
Вид битрейта : Постоянный
Битрейт : 448 Кбит/сек
Каналы : 6 каналов
Расположение каналов : Front: L C R, Side: L R, LFE
Частота : 48,0 КГц
Частота кадров : 31,250 кадров/сек (1536 SPF)
Битовая глубина : 16 бит
Метод сжатия : С потерями
Задержка видео : -376 мс.
Размер потока : 53,1 Мбайт (5%)
ServiceKind/String : Complete Main

Меню


За предоставленный DVD спасибо большое AKIM2B
Раздаю с 10:00 до 23:00 до 10 скачавших.

Внимание! AdBlock блокирует показ скриншотов, все вопросы к разработчикам )))
Трекер:  [ 23-Май-2018 19:30 ]

  

Скачать .torrent

Размер .torrent файла 35 KB


Размер: 6.4 GB
Хэш (hash) релиза: 580a3d7d279249ff654ee3db997420412ea1a4e9
Подписка на обновления:

Торренты, похожие на Зачинщики Masterminds скачать торрент

Форум Название Автор Размер S L Добавлен
Зарубежные фильмы 2016-2019 (Новинки зарубежного кино) ·· Зачинщики / Masterminds (Джаред Хесс / Jared Hess) [2016, США, Боевик, комедия, криминал, BDRip] Dub (iTunes) Galfimbul 783185920747 MB 0 0 1484490748

17:32

15-Янв-17

Зарубежные фильмы до 2016 ·· Зачинщики / Masterminds (Джаред Хесс / Jared Hess) [2016, США, боевик, комедия, криминал, WEB-DL 1080p] Dub (iTunes) Galfimbul 37893412883.53 GB 0 0 1480618289

21:51

1-Дек-16

Зарубежные фильмы 2016-2019 (Новинки зарубежного кино) ·· Зачинщики / Masterminds (Джаред Хесс / Jared Hess) [2016, США, Боевик, комедия, криминал, WEB-DLRip] Dub (iTunes) Galfimbul 15701325221.46 GB 0 0 1479933533

23:38

23-Ноя-16

Зарубежные фильмы 2016-2019 (Новинки зарубежного кино) ·· Зачинщики / Masterminds (Джаред Хесс) [2016, боевик, комедия, криминал, WEB-DL 720p] iTunes Galfimbul 30086804362.8 GB 0 0 1479787850

07:10

22-Ноя-16

Зарубежные фильмы 2016-2019 (Новинки зарубежного кино) ·· Зачинщики / Masterminds (Джаред Хесс) [2016, боевик, комедия, криминал, WEB-DLRip] iTunes Galfimbul 781829272746 MB 0 0 1479769845

02:10

22-Ноя-16

Зарубежные фильмы 2016-2019 (Новинки зарубежного кино) ·· Зачинщики / Masterminds (Джаред Хесс) [2016, боевик, комедия, криминал, TS] Galfimbul 14743397581.37 GB 0 0 1478899017

00:16

12-Ноя-16

Зарубежные фильмы 2016-2019 (Новинки зарубежного кино) ·· Зачинщики / Masterminds (Джаред Хесс) [2016, боевик, комедия, криминал, TS] Line Galfimbul 14679531521.37 GB 0 0 1477489190

16:39

26-Окт-16

Зарубежные фильмы 2016-2019 (Новинки зарубежного кино) ·· Зачинщики / Masterminds (Джаред Хесс) [2016, боевик, комедия, криминал, CAMRip] Galfimbul 14674698241.37 GB 0 0 1475263013

22:16

30-Сен-16

Еще никто не оставлял запись к записи скачать торрент Зачинщики Masterminds . Будь первым!

!Обратная связь