Скачать через торрент Пожарная часть 19 Station 19 Фильм бесплатно в хорошем качестве torrent

Скачивайте на UnionPeer.org фильмы через торрент без регистрации. Новинки кино в хорошем качестве через торрент. На UnionPeer.org можно скачать через торрент фильмы 2014 и 2015 годов. Самые новые фильмы.

Скачать торрент Пожарная часть 19 Station 19 бесплатно через .torrent фильм мультфильм сериал

Статистика раздачи
Размер:  6.29 GB   |    Зарегистрирован:  4 года 1 месяц   |    .torrent скачан:  40 раз   |   
Раздают:  1  
   
 
Автор Сообщение

Galfimbul

avatar Galfimbul


Пожарная часть 19 / Station 19
Страна: США
Год выпуска: 2018
Жанр: боевик, триллер, драма, мелодрама
Продолжительность: ~ 00:41:00 мин серия
Перевод: Профессиональный (дублированный) |Кириллица|
Премьера (мир): 22 марта 2018
Премьера (РФ): 24 апреля 2018
Режиссер: Пэрис Барклай, Марисоль Торрес, Мэри Лу Белли
В главных ролях: Джессика Ортиз, Джейсон Уинстон Джордж, Грэй Дэймон, Барретт Досс, Альберто Фрезза, Джей Хейден, Окьерете Онаодован, Даниэль Савре, Мигель Сандовал, Калеб Александр Смит, Джереми Коэнур, Эшли Фусс, Лесли Хоуп, Киана Кейн Эмма Ловен, Эллен Помпео, Шандра Уилсон
Описание фильма:
Сериал рассказывает о работниках пожарной станции номер девятнадцать, что располагается в городе Сиэтл. В центре внимания оказывается Энди Эррера. Главная героиня этого сериала работает в своей профессии уже давно. К тому же она обладает некоторой властью, ведь является дочерью самого начальника станции. Характер у Энди весьма сильный: девушка знает, как держать себя в руках даже в самых сложных ситуациях. С такой боевой натурой справляются далеко не все. Новичок Бэн Уоррен многого насмотрелся в своей жизни, ведь когда-то работал анастезиологом в одной из крупнейших больниц Сиэтла. Ему приходится несладко с такой суровой коллегой. Однако рано или поздно связи между персонажами наладятся. История также захватывает рассказ о личной жизни бесстрашного лейтенанта Джека Гибсона, человека, который всю свою жизнь отдал любимому делу. Помимо привычных дел и рабочих забот главные герои задумываются о личной жизни. Энди Эррера влюблена в Райана Тэннера, человека, который служит в местной полиции. Главная героиня до сих пор скрывает свои чувства, выплескивая эмоции на работе. Ей приходится сражаться со стихией, а также быть достойным товарищем для своих коллег по работе. Удается, увы, не всегда.


<div class="post-box-default">
<div class="post-box" style="border-color: #d2d2d2; background: #000000;">Предыдущие и альтернативные раздачи</div>
</div>

Качество видео: WEBRip
Формат: AVI
Видео: XviD, 720x400 (16:9), 25.000 fps, ~2000 kbps, 0.28 Bits/Pixel |Локализованный видеоряд|
Аудио Rus: AC-3, 48,0 kHz, 2 ch, 192 kb/s |Кириллица|
Аудио Eng: AC-3, 48,0 kHz, 2 ch, 192 kb/s |Original|
Субтитры: Russian forced (вшитые)
Реклама: Отсутствует
Релиз:

ОбщееПолное имя : E:\_Сериалы\_Сериалы\Пожарная часть 19\Station.19.S01E02.WEBRip.Rus.Eng.Casstudio\Station.19.S01E01.WEBRip.Rus.Eng.aviФормат : AVIФормат/Информация : Audio Video InterleaveРазмер файла : 711 МбайтПродолжительность : 41 м. 25 с.Общий поток : 2399 Кбит/секПрограмма кодирования : VirtualDubMod 1.5.10.3 | www.virtualdub-fr.org || (build 2550/release)Библиотека кодирования : VirtualDubMod build 2550/release

ВидеоИдентификатор : 0Формат : MPEG-4 VisualПрофиль формата : Advanced Simple@L5Настройки формата : BVOP1Параметр BVOP формата : 1Параметр QPel формата : НетПараметр GMC формата : Без точки переходаПараметр матрицы формата : Default (MPEG)Идентификатор кодека : XVIDИдентификатор кодека/Подсказка : XviDПродолжительность : 41 м. 25 с.Битрейт : 2000 Кбит/секШирина : 720 пикселейВысота : 400 пикселейСоотношение сторон : 16:9Частота кадров : 25,000 кадров/секЦветовое пространство : YUVСубдискретизация насыщенности : 4:2:0Битовая глубина : 8 битТип развёртки : ПрогрессивнаяМетод сжатия : С потерямиБит/(Пиксели*Кадры) : 0.278Размер потока : 593 Мбайт (83%)Библиотека кодирования : XviD 1.2.1 (UTC 2008-12-04)

Аудио #1Идентификатор : 1Формат : AC-3Формат/Информация : Audio Coding 3Идентификатор кодека : 2000Продолжительность : 41 м. 25 с.Вид битрейта : ПостоянныйБитрейт : 192 Кбит/секКаналы : 2 каналаРасположение каналов : Front: L RЧастота : 48,0 КГцЧастота кадров : 31,250 кадров/сек (1536 SPF)Битовая глубина : 16 битМетод сжатия : С потерямиРазмер потока : 56,9 Мбайт (8%)Выравнивание : Разделение по промежуткамПродолжительность промежутка : 40 мс. (1,00 видеокадр)Время предзагрузки промежутка : 500 мс.ServiceKind/String : Complete Main

Аудио #2Идентификатор : 2Формат : AC-3Формат/Информация : Audio Coding 3Идентификатор кодека : 2000Продолжительность : 41 м. 19 с.Вид битрейта : ПостоянныйБитрейт : 192 Кбит/секКаналы : 2 каналаРасположение каналов : Front: L RЧастота : 48,0 КГцЧастота кадров : 31,250 кадров/сек (1536 SPF)Битовая глубина : 16 битМетод сжатия : С потерямиРазмер потока : 56,7 Мбайт (8%)Выравнивание : Разделение по промежуткамПродолжительность промежутка : 40 мс. (1,00 видеокадр)Время предзагрузки промежутка : 500 мс.ServiceKind/String : Complete Main


1. Открыть торрент
2. Снять галки с тех файлов торрента, которые мы не хотим закачивать. Оставляем только на нужных нам файлах (файле).
3. Нажать О.К.

В клиенте utorrent

Инструкция

1) Открыть торрент


2) Снять галки с тех файлов торрента, которые мы не хотим закачивать:

* либо вручную, снимая с каждого файла галку( скрин №1)
* либо, нажав кнопку "Снять метки (Select None)", сняв сразу со всех файлов(скрин №2)
№1

№2

Оставляем только на нужных нам файлах (файле).

3)Нажать О.К

Приятного просмотра!!!


Внимание! AdBlock блокирует показ скриншотов, все вопросы к разработчикам )))
Трекер:  [ 25-Май-2018 19:48 ]

  

Скачать .torrent

Размер .torrent файла 32 KB


Размер: 6.29 GB
Хэш (hash) релиза: 8ca5d3277f0dcc1430d7b7d9e1b4220d3b4789a9
Подписка на обновления:

Еще никто не оставлял запись к записи скачать торрент Пожарная часть 19 Station 19 . Будь первым!

!Обратная связь