Скачать через торрент Собибор Фильм бесплатно в хорошем качестве torrent

Скачивайте на UnionPeer.org фильмы через торрент без регистрации. Новинки кино в хорошем качестве через торрент. На UnionPeer.org можно скачать через торрент фильмы 2014 и 2015 годов. Самые новые фильмы.

Скачать торрент Собибор бесплатно через .torrent фильм мультфильм сериал

Статистика раздачи
Размер:  4.03 GB   |    Зарегистрирован:  24 дня   |    .torrent скачан:  340 раз   |   
Раздают:  1  
   
загрузка...
 
Автор Сообщение

Galfimbul

avatar Galfimbul


Название: Собибор
Год выпуска: 2018
Жанр: военный, драма
Режиссер: Константин Хабенский
В ролях: Константин Хабенский (Александр Печерский), Кристофер Ламберт (Карл Френцель), Фелисе Янкелль (Люка), Дайнюс Казлаускас (Лео), Сергей Годин (Аркадий Вайспапир), Роман Агеев (Борис Цыбульский), Гела Месхи (Семен Розенфельд), Михалина Ольшанска (Ханна), Мария Кожевникова (Сельма), Вольфганг Черны (Густав Вагнер), Филипп Рейнхардт (Зигфрид), Дирк Мартенс (Бэкмен)
О фильме: История сопротивления человеческого духа бездушной машине уничтожения. В октябре 1943 года заключённые лагеря Собибор во главе с лейтенантом Красной Армии Александром Печерским поднимают восстание - единственное успешное восстание в нацистском лагере смерти.
Страна: Россия
Студия: Патриот Продакшнс
Продолжительность: 01:57:05
Перевод: Оригинальный | iTunes
Файл
Качество: WEB-DL 1080p
Формат: Matroska
Видео: 1920x806 at 24.000 fps, MPEG-4 AVC, ~4446 kbps avg
Аудио: Russian: 48 kHz, AC3, 3/2 (L,C,R,l,r) + LFE ch, ~384 kbps avg
Субтитры: None

***Релиз: NNMClub.
[li]Создателей фильма на съемках консультировали представители Фонда Александра Печерского, а также семья Печерского – дочь Элеонора Гриневич и внучка Наталья Ладыченко.
[li]Главной декорацией стал воссозданный в полном соответствии с чертежами нацистский лагерь смерти.[/li][/li]
Общее
Уникальный идентификатор : 238925192340037257975328542048718385426 (0xB3BF517826C5F988BF52B40E151F7112)
Полное имя : Собибор.2018.WEB-DL.[1080p].NNMClub.mkv
Формат : Matroska
Версия формата : Version 2
Размер файла : 4,03 Гбайт
Продолжительность : 1 ч. 57 м.
Общий поток : 4928 Кбит/сек
Дата кодирования : UTC 2018-05-31 18:16:18
Программа кодирования : mkvmerge v8.3.0 ('Over the Horizon') 64bit
Библиотека кодирования : libebml v1.3.1 + libmatroska v1.4.2

Видео
Идентификатор : 1
Формат : AVC
Формат/Информация : Advanced Video Codec
Профиль формата : High@L4.0
Параметр CABAC формата : Да
Параметр ReFrames формата : 5 кадров
Идентификатор кодека : V_MPEG4/ISO/AVC
Продолжительность : 1 ч. 57 м.
Битрейт : 4446 Кбит/сек
Ширина : 1920 пикселей
Высота : 806 пикселей
Соотношение сторон : 2,40:1
Режим частоты кадров : Постоянный
Частота кадров : 24,000 кадра/сек
Цветовое пространство : YUV
Субдискретизация насыщенности : 4:2:0
Битовая глубина : 8 бит
Тип развёртки : Прогрессивная
Бит/(Пиксели*Кадры) : 0.120
Размер потока : 3,64 Гбайт (90%)
Язык : English
Default : Да
Forced : Нет
Основные цвета : BT.709
Характеристики трансфера : BT.709
Коэффициенты матрицы : BT.709

Аудио
Идентификатор : 2
Формат : AC-3
Формат/Информация : Audio Coding 3
Расширение режима : CM (complete main)
Параметр Endianness формата : Big
Идентификатор кодека : A_AC3
Продолжительность : 1 ч. 57 м.
Вид битрейта : Постоянный
Битрейт : 384 Кбит/сек
Каналы : 6 каналов
Расположение каналов : Front: L C R, Side: L R, LFE
Частота : 48,0 КГц
Битовая глубина : 16 бит
Метод сжатия : С потерями
Размер потока : 322 Мбайт (8%)
Язык : Russian
Default : Да
Forced : Нет
Источник http://blator.org

Трекер:  [ 31-Май-2018 23:40 ]

  

Скачать .torrent

Размер .torrent файла 20 KB


Размер: 4.03 GB
Хэш (hash) релиза: 34027bf253abb2062e4874f87dd9a66a39c3e46d
Подписка на обновления:

Торренты, похожие на Собибор скачать торрент

Форум Название Автор Размер S L Добавлен
Российские фильмы 2016-2018 (Новинки русского кино) ·%· Собибор (2018) WEB-DLRip 720p от MIXTV | iTunes Galfimbul 23579894222.2 GB 0 0 1528956762

09:12

14-Июн-18

Российские фильмы до 2016 ·· Собибор (Константин Хабенский) [2018, военный, драма, WEB-DLRip] Galfimbul 23401512962.18 GB 0 0 1527861258

16:54

1-Июн-18

Российские фильмы 2016-2018 (Новинки русского кино) ·· Собибор (Константин Хабенский) [2018 г., Военный, драма, WEB-DL 720p] | iTunes Galfimbul 38907238953.62 GB 0 0 1527837325

10:15

1-Июн-18

Российские фильмы 2016-2018 (Новинки русского кино) ·· Собибор (Константин Хабенский) [2018 г., Военный, драма, WEB-DLRip] | iTunes Galfimbul 22048768002.05 GB 0 0 1527837321

10:15

1-Июн-18

Российские фильмы до 2016 ·· Собибор (Константин Хабенский) [2018, Россия, военный, драма, WEB-DL 1080p] Original Rus Galfimbul 43271419554.03 GB 0 0 1527836491

10:01

1-Июн-18

Документальные фильмы и телепередачи ·· Собибор. Непокоренные (Ольга Товма, Алексей Товма) [2013, Документальный, война, история, биография, SATRip] Galfimbul 639942656610 MB 0 0 1476554024

20:53

15-Окт-16

Документальные фильмы и телепередачи ·· Лейтенант Печерский из Собибора. (Екатерина Гальперина)Фильм Леонида Млечина. [2013, Документальный, DVDRip] Galfimbul 481088652459 MB 0 0 1382216135

23:55

19-Окт-13

Еще никто не оставлял запись к записи скачать торрент Собибор . Будь первым!

!Обратная связь