Скачать через торрент Кресло Chair Фильм бесплатно в хорошем качестве torrent

Скачивайте на UnionPeer.org фильмы через торрент без регистрации. Новинки кино в хорошем качестве через торрент. На UnionPeer.org можно скачать через торрент фильмы 2014 и 2015 годов. Самые новые фильмы.

Скачать торрент Кресло Chair бесплатно через .torrent фильм мультфильм сериал

Статистика раздачи
Размер:  710 MB   |    Зарегистрирован:  6 месяцев   |    .torrent скачан:  36 раз   |   
Раздают:  1  
   
загрузка...
 
Автор Сообщение

Galfimbul

avatar Galfimbul


Кресло / Chair

Страна: Грузия
Жанр: комедия
Год выпуска: 2017
Продолжительность: 01:33:21

Перевод: Профессиональный (двухголосый закадровый)
Субтитры: нет
Режиссер: Эльдар Шенгелая

В ролях: Нико Тавадзе, Нинель Чанкветадзе, Наталия Джугели, Зука Дарджания, Кети Асатиани, Нана Шония, Вано Гогитидзе, Мераб Гегечкори, Виталий Хазарадзе.

Описание: Министр по делам беженцев, господин Георгий Мчедлишвили получает посылку. Это- изготовленное по спецзаказу черное кожаное кресло с пультом управления. Министр очень рад этому приобретению. Между ним и креслом устанавливается эмоциональная связь. Кресло, как выясняется в дальнейшем, является одушевленным существом, способным на чувства и эмоции.

Сэмпл: https://ufile.io/nkzfr

Качество видео: SATRip
Формат видео: MKV

Видео: h.264, 640x360, 16:9, 25fps, 1000Kbs
Аудио: mp3, 44.1 KHz, 192kbs, 2 ch
Format : MatroskaFormat version : Version 4 / Version 2File size : 710 MiBDuration : 1 h 33 minOverall bit rate : 1 063 kb/sWriting application : Lavf56.15.102Writing library : Lavf56.15.102

VideoID : 1Format : AVCFormat/Info : Advanced Video CodecFormat profile : Baseline@L3Format settings, CABAC : NoFormat settings, RefFrames : 2 framesCodec ID : V_MPEG4/ISO/AVCDuration : 1 h 33 minBit rate : 864 kb/sWidth : 640 pixelsHeight : 360 pixelsDisplay aspect ratio : 16:9Frame rate mode : ConstantFrame rate : 25.000 FPSColor space : YUVChroma subsampling : 4:2:0Bit depth : 8 bitsScan type : ProgressiveBits/(Pixel*Frame) : 0.150Stream size : 568 MiB (80%)Writing library : x264 core 142Encoding settings : cabac=0 / ref=2 / deblock=1:0:0 / analyse=0x1:0x111 / me=hex / subme=4 / psy=1 / psy_rd=1.00:0.00 / mixed_ref=0 / me_range=16 / chroma_me=1 / trellis=1 / 8x8dct=0 / cqm=0 / deadzone=21,11 / fast_pskip=1 / chroma_qp_offset=0 / threads=6 / lookahead_threads=1 / sliced_threads=0 / nr=0 / decimate=1 / interlaced=0 / bluray_compat=0 / constrained_intra=0 / bframes=0 / weightp=0 / keyint=250 / keyint_min=25 / scenecut=40 / intra_refresh=0 / rc_lookahead=20 / rc=abr / mbtree=1 / bitrate=864 / ratetol=1.0 / qcomp=0.60 / qpmin=0 / qpmax=69 / qpstep=4 / ip_ratio=1.40 / aq=1:1.00Default : YesForced : No

AudioID : 2Format : MPEG AudioFormat version : Version 1Format profile : Layer 3Mode : Joint stereoMode extension : MS StereoCodec ID : A_MPEG/L3Codec ID/Hint : MP3Duration : 1 h 33 minBit rate mode : ConstantBit rate : 192 kb/sChannel(s) : 2 channelsSampling rate : 44.1 kHzCompression mode : LossyDelay relative to video : -65 msStream size : 128 MiB (18%)Default : YesForced : No


Трекер:  [ 01-Июн-2018 01:24 ]

  

Скачать .torrent

Размер .torrent файла 14 KB


Размер: 710 MB
Хэш (hash) релиза: 0d17ce3117ab5e9a868102a2887d97526b0db007
Подписка на обновления:

Торренты, похожие на Кресло Chair скачать торрент

Форум Название Автор Размер S L Добавлен
Зарубежные фильмы до 2016 ·· Хроники Нарнии: Серебряное кресло / The Chronicles Of Narnia: The Silver Chair (Алекс Керби) [1990 г., Фэнтези, DVDRip] MrDjo 14689054721.37 GB 0 0 1290622319

21:11

24-Ноя-10

Еще никто не оставлял запись к записи скачать торрент Кресло Chair . Будь первым!

!Обратная связь