Скачать через торрент По волчьим законам Animal Kingdom Фильм бесплатно в хорошем качестве torrent

Скачивайте на UnionPeer.org фильмы через торрент без регистрации. Новинки кино в хорошем качестве через торрент. На UnionPeer.org можно скачать через торрент фильмы 2014 и 2015 годов. Самые новые фильмы.

Скачать торрент По волчьим законам Animal Kingdom бесплатно через .torrent фильм мультфильм сериал

Статистика раздачи
Размер:  2.49 GB   |    Зарегистрирован:  5 месяцев 5 дней   |    .torrent скачан:  52 раза   |   
Раздают:  1  
   
загрузка...
 
Автор Сообщение

Galfimbul

avatar Galfimbul


По волчьим законам / Animal Kingdom
Год выпуска: 2018
Страна: США
Жанр: Драма, криминал
Продолжительность: ~ 00:60:00

Перевод: Профессиональный (двухголосый закадровый)[Gears Media]

Режиссёр: Джон Уэллс

В ролях: Эллен Баркин, Девон Сава, Скотт Спидман, Бен Робсон, Даниэлла Алонсо, Шон Хэтоси, Райан Дорси, Анна Белкнап, Джейк Вири, Карен Малина Уайт

Описание:
На создание сериала создателей вдохновил одноимённый австралийский фильм Дэвида Мишо 2010 года. Это история о том, как 17-летний Джошуа Коди после смерти матери переезжает к своей родне в пляжный городок в Южной Калифорнии. Глава семьи Джанин Коди руководит семейным делом. Главный её помощник — старший из братьев Коди по имени Поуп. Остальные сыновья тоже помогают матери по мере сил. Вскоре Джошуа понимает, что фамильный бизнес связан с криминалом и что теперь он волей-неволей сделался частью этого нового для него смертельно опасного мира.

Сэмпл: http://multi-up.com/1200376

Качество: WEBRip 720p
Формат: MKV
Видео: X264, 1280x720 at 23.976 fps, ~3000 kbps avg
Аудио1: Russian, AC3, 48 kHz, 2 ch, 384 kbps
Аудио2: English, ААС, 44.1 kHz, 2 ch, 126 kbps
Субтитры: нет
Реклама: аудио (два раза, в начале и конце, по 12 сек.)
Format : Matroska
Format version : Version 4 / Version 2
File size : 1.12 GiB
Duration : 46 min 43 s
Overall bit rate : 3 427 kb/s
Encoded date : UTC 2018-06-03 03:07:18
Writing application : mkvmerge v22.0.0 ('At The End Of The World') 64-bit
Writing library : libebml v1.3.5 + libmatroska v1.4.8

Video
ID : 1
Format : AVC
Format/Info : Advanced Video Codec
Format profile : High@L4.1
Format settings : CABAC / 5 Ref Frames
Format settings, CABAC : Yes
Format settings, ReFrames : 5 frames
Codec ID : V_MPEG4/ISO/AVC
Duration : 46 min 42 s
Bit rate : 2 915 kb/s
Width : 1 280 pixels
Height : 720 pixels
Display aspect ratio : 16:9
Frame rate mode : Constant
Frame rate : 23.976 (24000/1001) FPS
Color space : YUV
Chroma subsampling : 4:2:0
Bit depth : 8 bits
Scan type : Progressive
Bits/(Pixel*Frame) : 0.132
Stream size : 974 MiB (85%)
Writing library : x264 core 155 r2901 7d0ff22
Encoding settings : cabac=1 / ref=5 / deblock=1:-3:-3 / analyse=0x3:0x113 / me=hex / subme=8 / psy=1 / psy_rd=1.00:0.15 / mixed_ref=1 / me_range=16 / chroma_me=1 / trellis=2 / 8x8dct=1 / cqm=0 / deadzone=21,11 / fast_pskip=1 / chroma_qp_offset=-3 / threads=22 / lookahead_threads=3 / sliced_threads=0 / nr=0 / decimate=1 / interlaced=0 / bluray_compat=0 / constrained_intra=0 / bframes=3 / b_pyramid=2 / b_adapt=2 / b_bias=0 / direct=3 / weightb=1 / open_gop=0 / weightp=2 / keyint=250 / keyint_min=23 / scenecut=40 / intra_refresh=0 / rc_lookahead=50 / rc=crf / mbtree=1 / crf=18.0 / qcomp=0.60 / qpmin=0 / qpmax=69 / qpstep=4 / ip_ratio=1.40 / aq=1:1.00
Language : English
Default : Yes
Forced : No
Color range : Limited
Matrix coefficients : BT.709

Audio #1
ID : 2
Format : AC-3
Format/Info : Audio Coding 3
Codec ID : A_AC3
Duration : 46 min 43 s
Bit rate mode : Constant
Bit rate : 384 kb/s
Channel(s) : 2 channels
Channel positions : Front: L R
Sampling rate : 48.0 kHz
Frame rate : 31.250 FPS (1536 SPF)
Bit depth : 16 bits
Compression mode : Lossy
Stream size : 128 MiB (11%)
Title : Gears Media
Language : Russian
Service kind : Complete Main
Default : Yes
Forced : Yes

Audio #2
ID : 3
Format : AAC
Format/Info : Advanced Audio Codec
Format profile : LC
Codec ID : A_AAC-2
Duration : 46 min 42 s
Bit rate : 126 kb/s
Channel(s) : 2 channels
Channel positions : Front: L R
Sampling rate : 44.1 kHz
Frame rate : 43.066 FPS (1024 SPF)
Compression mode : Lossy
Delay relative to video : 8 ms
Stream size : 42.0 MiB (4%)
Language : English
Default : No
Forced : No


Трекер:  [ 08-Июн-2018 11:22 ]

  

Скачать .torrent

Размер .torrent файла 13 KB


Размер: 2.49 GB
Хэш (hash) релиза: 5916fdc8b25afa52e101815bbb83be0e62ab8f4a
Подписка на обновления:

Торренты, похожие на По волчьим законам Animal Kingdom скачать торрент

Форум Название Автор Размер S L Добавлен
Зарубежные сериалы ·· По волчьим законам / Animal Kingdom / Сезон: 3 / Серии: 1-2 из 13 (Джон Уэллс) [2018, США, Драма, криминал, WEBRip] DVO (Gears Media) + Original Galfimbul 12037283621.12 GB 0 0 1528008486

09:48

3-Июн-18

bot

Раздача обновлена!
Перекачайте торрент-файл.

Хотите добавить комментарий к записи скачать торрент По волчьим законам Animal Kingdom

!Обратная связь