Скачать через торрент До встречи с тобой Me Before You Фильм бесплатно в хорошем качестве torrent

Скачивайте на UnionPeer.org фильмы через торрент без регистрации. Новинки кино в хорошем качестве через торрент. На UnionPeer.org можно скачать через торрент фильмы 2014 и 2015 годов. Самые новые фильмы.

Скачать торрент До встречи с тобой Me Before You бесплатно через .torrent фильм мультфильм сериал

Статистика раздачи
Размер:  5.97 GB   |    Зарегистрирован:  5 лет 8 месяцев   |    .torrent скачан:  51 раз   |   
Раздают:  1  
 

Скачать До встречи с тобой / Me Before You (Теа Шэррок / Thea Sharrock) [2016, Великобритания, США, Драма, мелодрама, DVD9] R5 Dub + Sub Rus + Original Eng через torrent

 
 
Автор Сообщение

Galfimbul

avatar Galfimbul


До встречи с тобой / Me Before You
Страна: Великобритания, США
Студии: Warner Bros., New Line Cinema, Metro-Goldwyn-Mayer (MGM), Sunswept Entertainment
Жанр: Драма, мелодрама
Год выпуска: 2016
Дата мировой премьеры: 23 мая 2016
Дата российской премьеры: 7 июля 2016, «Каро-Премьер»
Продолжительность: 01:45:45
Перевод: Профессиональный (дублированный) [Лицензия]
Субтитры: Английские, хорватские, эстонские, латышские, литовские, польские, русские, словенские, турецкие
Оригинальная аудиодорожка: английская
Режиссер: Теа Шэррок / Thea Sharrock
Продюсеры: Элисон Оуэн, Карен Розенфельт, Сью Баден-Поуелл
Актеры: Эмилия Кларк, Сэм Клафлин, Джанет МакТир, Чарльз Дэнс, Брендан Койл, Дженна Коулман, Мэттью Льюис, Бен Ллойд-Хьюз, Ванесса Кирби, Стивен Пикок
Описание:
Лу Кларк знает, сколько шагов от автобусной остановки до ее дома. Она знает, что ей очень нравится работа в кафе и что, скорее всего, она не любит своего бойфренда Патрика. Но Лу не знает, что вот-вот потеряет свою работу и что в ближайшем будущем ей понадобятся все силы, чтобы преодолеть свалившиеся на нее проблемы.

Уилл Трейнор знает, что сбивший его мотоциклист отнял у него желание жить. И он точно знает, что надо сделать, чтобы положить конец всему этому. Но он не знает, что Лу скоро ворвется в его мир буйством красок. И они оба не знают, что навсегда изменят жизнь друг друга.

Доп. материалы: "До встречи с тобой" со страниц книги на экран, Дубли, Удаленные сцены

Качество: DVD9 R5
Формат: DVD-Video

Видео: MPEG-2, 720x576@1024x576 (PAL 16:9), ~6300 Кбит/сек
Аудио 1: AC3 5.1, 384 Кбит/сек [Английский - оригинал]
Аудио 2: AC3 5.1, 384 Кбит/сек [Польский - одноголосый закадровый]
Аудио 3: AC3 5.1, 384 Кбит/сек [Русский - дублированный]
Аудио 4: AC3 2.0, 192 Кбит/сек [Турецкий - дублированный]
Title: Me Before You (2016) DVD9 R5
Size: 5.97 Gb ( 6 264 388,00 KBytes ) - DVD-9
Enabled regions: 1, 2, 3, 4, 5, 6, 7, 8

VTS_01 :
Play Length: 01:45:45+00:00:00+00:05:27+00:02:11+00:05:56
Video: PAL 16:9 (720x576) VBR, Auto Letterboxed
Audio:
English, AC3, 3/2 (L,C,R,SL,SR)+LFE ch, 384 kbps, Delay 0 mSec
Polish, AC3, 3/2 (L,C,R,SL,SR)+LFE ch, 384 kbps, Delay 0 mSec
Russian, AC3, 3/2 (L,C,R,SL,SR)+LFE ch, 384 kbps, Delay 0 mSec
Turkish, AC3, 2/0 (L,R) ch, 192 kbps, Delay 0 mSec
English,

Subtitles:
English
Hrvatski
Estonian
Latvian
Lithuanian
Polish
Russian
Slovenian
Turkish
Russian
Turkish

VTS_02 :
Play Length: 00:00:10
Video: PAL 16:9 (720x576) VBR, Auto Letterboxed
Audio:
Not specified (Dolby AC3, 6 ch)
Subtitles:
Not specified
Общее
Полное имя : V:\Torrents\Me Before You (2016) DVD9 R5\VIDEO_TS\VTS_01_4.VOB
Формат : MPEG-PS
Размер файла : 1024 Мбайт
Продолжительность : 18 м. 18 с.
Режим общего битрейта : Переменный
Общий поток : 7823 Кбит/сек

Видео
Идентификатор : 224 (0xE0)
Формат : MPEG Video
Версия формата : Version 2
Профиль формата : Main@Main
Настройки формата : CustomMatrix / BVOP
Параметр BVOP формата : Да
Параметр матрицы формата : Выборочная
Параметр GOP формата : Variable
Продолжительность : 18 м. 18 с.
Вид битрейта : Переменный
Битрейт : 6323 Кбит/сек
Максимальный битрейт : 9800 Кбит/сек
Ширина : 720 пикселей
Высота : 576 пикселей
Соотношение сторон : 16:9
Частота кадров : 25,000 кадров/сек
Стандарт вещания : PAL
Цветовое пространство : YUV
Субдискретизация насыщенности : 4:2:0
Битовая глубина : 8 бит
Тип развёртки : Прогрессивная
Порядок развёртки : Верхнее поле первое
Метод сжатия : С потерями
Бит/(Пиксели*Кадры) : 0.610
Временной код первого кадра : 01:55:27:19
Оригинал временного кода : Group of pictures header
Размер потока : 828 Мбайт (81%)

Аудио #1
Идентификатор : 189 (0xBD)-128 (0x80)
Формат : AC-3
Формат/Информация : Audio Coding 3
Параметр Endianness формата : Big
Режим смешивания : DVD-Video
Продолжительность : 18 м. 17 с.
Вид битрейта : Постоянный
Битрейт : 384 Кбит/сек
Каналы : 6 каналов
Расположение каналов : Front: L C R, Side: L R, LFE
Частота : 48,0 КГц
Частота кадров : 31,250 кадров/сек (1536 SPF)
Битовая глубина : 16 бит
Метод сжатия : С потерями
Размер потока : 50,3 Мбайт (5%)
ServiceKind/String : Complete Main

Аудио #2
Идентификатор : 189 (0xBD)-129 (0x81)
Формат : AC-3
Формат/Информация : Audio Coding 3
Параметр Endianness формата : Big
Режим смешивания : DVD-Video
Продолжительность : 18 м. 17 с.
Вид битрейта : Постоянный
Битрейт : 384 Кбит/сек
Каналы : 6 каналов
Расположение каналов : Front: L C R, Side: L R, LFE
Частота : 48,0 КГц
Частота кадров : 31,250 кадров/сек (1536 SPF)
Битовая глубина : 16 бит
Метод сжатия : С потерями
Размер потока : 50,3 Мбайт (5%)
ServiceKind/String : Complete Main

Аудио #3
Идентификатор : 189 (0xBD)-130 (0x82)
Формат : AC-3
Формат/Информация : Audio Coding 3
Параметр Endianness формата : Big
Режим смешивания : DVD-Video
Продолжительность : 18 м. 17 с.
Вид битрейта : Постоянный
Битрейт : 384 Кбит/сек
Каналы : 6 каналов
Расположение каналов : Front: L C R, Side: L R, LFE
Частота : 48,0 КГц
Частота кадров : 31,250 кадров/сек (1536 SPF)
Битовая глубина : 16 бит
Метод сжатия : С потерями
Размер потока : 50,3 Мбайт (5%)
ServiceKind/String : Complete Main

Аудио #4
Идентификатор : 189 (0xBD)-131 (0x83)
Формат : AC-3
Формат/Информация : Audio Coding 3
Режим : Dolby Digital
Параметр Endianness формата : Big
Режим смешивания : DVD-Video
Продолжительность : 18 м. 17 с.
Вид битрейта : Постоянный
Битрейт : 192 Кбит/сек
Каналы : 2 канала
Расположение каналов : Front: L R
Частота : 48,0 КГц
Частота кадров : 31,250 кадров/сек (1536 SPF)
Битовая глубина : 16 бит
Метод сжатия : С потерями
Размер потока : 25,1 Мбайт (2%)
ServiceKind/String : Complete Main

Текст
Идентификатор : 189 (0xBD)-32 (0x20)
Формат : RLE
Формат/Информация : Run-length encoding
Режим смешивания : DVD-Video
Задержка видео : 4 с. 400 мс.

Меню


За предоставленный DVD спасибо большое AKIM2B
Раздаю с 10:00 до 23:00 до 10 скачавших.

Внимание! AdBlock блокирует показ скриншотов, все вопросы к разработчикам )))
Трекер:  [ 05-Июн-2018 23:01 ]

  

Скачать .torrent

Размер .torrent файла 31 KB


Размер: 5.97 GB
Хэш (hash) релиза: 33833eba61aed2c943328043bcb373a65b37d080
Подписка на обновления:

Торренты, похожие на До встречи с тобой Me Before You скачать торрент

Форум Название Автор Размер S L Добавлен
Зарубежные фильмы 2016-2019 (Новинки зарубежного кино) ·· До встречи с тобой / Me Before You (Теа Шэррок) [2016, драма, WEBRip 1080p] Звук с TS Galfimbul 47580220254.43 GB 0 0 1468304062

09:14

12-Июл-16

Зарубежные фильмы 2016-2019 (Новинки зарубежного кино) ·· До встречи с тобой / Me Before You (Теа Шэррок) [2016, драма, WEBRip] Звук с TS Galfimbul 14676561921.37 GB 0 0 1468302243

08:44

12-Июл-16

Зарубежные фильмы 2016-2019 (Новинки зарубежного кино) ·%· До встречи с тобой / Me Before You (2016) BDRip-HEVC 1080p от M@kSIMus & NoMaD | Лицензия Galfimbul 58139615885.41 GB 0 0 1557104422

04:00

6-Май-19

Зарубежные фильмы до 2016 ·· До встречи с тобой / Me Before You (Теа Шэррок / Thea Sharrock) [2016, США, Великобритания, драма, BDRip 720p] Dub (Blu-ray CEE) + Ukr Dub + Original (Eng) + Sub (Rus, Eng) Galfimbul 69004996406.43 GB 0 0 1476130215

23:10

10-Окт-16

Зарубежные фильмы до 2016 ·· До встречи с тобой / Me Before You (Теа Шэррок / Thea Sharrock) [2016, США, Великобритания, драма, BDRip 1080p] Dub (Blu-ray CEE) + Ukr Dub + Original (Eng) + Sub (Rus, Eng) Galfimbul 1491475743813.89 GB 0 0 1476130162

23:09

10-Окт-16

Зарубежные фильмы до 2016 ·· До встречи с тобой / Me Before You (Теа Шэррок / Thea Sharrock) [2016, США, Великобритания, драма, Blu-ray disc 1080p] [CEE] Dub + Sub Rus, Eng + Original Eng Galfimbul 3322618623230.94 GB 0 0 1475429001

20:23

2-Окт-16

Трейлеры и дополнительные материалы ·· До встречи с тобой / Me Before You (Теа Шэррок / Thea Sharrock) [2016, Фрама, BDRip 720p] дополнительные материалы Galfimbul 447050432426 MB 0 0 1475365795

02:49

2-Окт-16

Зарубежные фильмы 2016-2019 (Новинки зарубежного кино) ·· До встречи с тобой / Me Before You (Теа Шэррок / Thea Sharrock) [2016, США, Великобритания, драма, BDRip-AVC] Dub Galfimbul 15705656101.46 GB 0 0 1473242078

12:54

7-Сен-16

Зарубежные фильмы 2016-2019 (Новинки зарубежного кино) ·· До встречи с тобой / Me Before You (Теа Шэррок / Thea Sharrock) [2016, США, Великобритания, драма, BDRip-AVC] Dub + Original + Sub (rus, eng) Galfimbul 30210551432.81 GB 0 0 1473242075

12:54

7-Сен-16

Зарубежные фильмы 2016-2019 (Новинки зарубежного кино) ·· До встречи с тобой / Me Before You (Теа Шэррок / Thea Sharrock) [2016, США, Великобритания, драма, BDRip] Dub Galfimbul 781318144745 MB 0 0 1473242071

12:54

7-Сен-16

Зарубежные фильмы 2016-2019 (Новинки зарубежного кино) ·· До встречи с тобой / Me Before You (Теа Шэррок / Thea Sharrock) [2016, США, Великобритания, драма, BDRip] Dub + Original + Sub (rus) Galfimbul 22842407812.13 GB 0 0 1473242067

12:54

7-Сен-16

Зарубежные фильмы 2016-2019 (Новинки зарубежного кино) ·· До встречи с тобой / Me Before You (Теа Шэррок / Thea Sharrock) [2016, США, Великобритания, драма, BDRip] Dub Galfimbul 15734333441.47 GB 0 0 1473240376

12:26

7-Сен-16

Зарубежные фильмы 2016-2019 (Новинки зарубежного кино) ·· До встречи с тобой / Me Before You (Теа Шэррок) [2016, драма, BDRip 720p] Line Galfimbul 51576888984.8 GB 0 0 1471244996

10:09

15-Авг-16

Зарубежные фильмы 2016-2019 (Новинки зарубежного кино) ·· До встречи с тобой / Me Before You (Теа Шэррок) [2016, драма, BDRip 1080p] Line Galfimbul 97964465629.12 GB 0 0 1471244991

10:09

15-Авг-16

Зарубежные фильмы 2016-2019 (Новинки зарубежного кино) ·· До встречи с тобой / Me Before You (Теа Шэррок) [2016, драма, HDRip] Line Galfimbul 15650222081.46 GB 0 0 1471244986

10:09

15-Авг-16

Зарубежные фильмы 2016-2019 (Новинки зарубежного кино) ·· До встречи с тобой / Me Before You (Теа Шэррок) [2016, драма, WEBRip 1080p] Galfimbul 42407262523.95 GB 0 0 1467960278

09:44

8-Июл-16

Зарубежные фильмы 2016-2019 (Новинки зарубежного кино) ·· До встречи с тобой / Me Before You (Теа Шэррок) [2016, драма, WEBRip] Galfimbul 14677135361.37 GB 0 0 1467960255

09:44

8-Июл-16

Еще никто не оставлял запись к записи скачать торрент До встречи с тобой Me Before You . Будь первым!

!Обратная связь