Скачать через торрент Аманат Фильм бесплатно в хорошем качестве torrent

Скачивайте на UnionPeer.org фильмы через торрент без регистрации. Новинки кино в хорошем качестве через торрент. На UnionPeer.org можно скачать через торрент фильмы 2014 и 2015 годов. Самые новые фильмы.

Скачать торрент Аманат бесплатно через .torrent фильм мультфильм сериал

Статистика раздачи
Размер:  1.93 GB   |    Зарегистрирован:  4 месяца 11 дней   |    .torrent скачан:  22 раза   |   
Раздают:  1  
   
загрузка...
 
Автор Сообщение

Galfimbul

avatar Galfimbul


Аманат
Страна: Казахстан
Жанр: драма
Продолжительность: 02:07:01
Год выпуска: 2016
Перевод: не требуется
Субтитры: отсутствуют
Режиссёр: Сатыбалды Нарымбетов
В ролях: Берик Айтжанов, Санжар Мадиев, Куралай Анарбекова, Карлыгаш Мухамеджанова, Ерден Телемисов, Азиз Бейшеналиев, Дмитрий Скирта, Артем Митнев, Азат Нуртаев, Ажар Ибраева
О фильме: Обращение в советскую эпоху к прошлому казахского народа обернулось драмой для истинного патриота – ученого историка Ермухана Бекмаханова. Он возродил к жизни, казалось, канувшее в Лету имя и подвиг мятежного хана Кенесары. Продолжая отважный путь историка, эстафету обращения к фигуре Кенесары подхватывает молодой журналист – главный герой фильма Рамазан и тоже сталкивается с преградами, берущими свое начало в сталинской эпохе забвения прошлого.
Увлекательная перекличка эпох, восхождение на пик славы и низведение триумфального подвига до полного забвения – такова амплитуда судеб героев фильма. Но справедливость восторжествовала и, в конце концов, забытые имена великих людей – истинных сыновей казахского народа вновь прозвучали, обозначая собой истинные параметры духовной мощи народа.

Семпл: https://www.sendspace.com/file/rmdv90
Доп. информация: Казахские диалоги переведены одноголосой озвучкой.
Качество: DVB [Ел Арна] (эфир 30.05.2018)
Формат: TS
Видео: AVC, 720x576 @ 1047x576 (16:9), 25 fps, ~1875 kbps, 0.181 bit/pixel
Аудио: [RUS] 48 kHz, MP2, 2 ch, 192 kbps
ОбщееИдентификатор : 1 (0x1)Полное имя : F:\Аманат (2016) [DVB].tsФормат : MPEG-TSРазмер файла : 1,93 ГбайтПродолжительность : 2 ч. 7 м.Режим общего битрейта : ПеременныйОбщий поток : 2176 Кбит/сек

ВидеоИдентификатор : 67 (0x43)Идентификатор меню : 1 (0x1)Формат : AVCФормат/Информация : Advanced Video CodecПрофиль формата : High@L3Параметр CABAC формата : ДаПараметр RefFrames формата : 3 кадраИдентификатор кодека : 27Продолжительность : 2 ч. 7 м.Битрейт : 1875 Кбит/секШирина : 720 пикселейВысота : 576 пикселейСоотношение сторон : 16:9Частота кадров : 25,000 кадров/секСтандарт вещания : ComponentЦветовое пространство : YUVСубдискретизация насыщенности : 4:2:0Битовая глубина : 8 битТип развёртки : ЧересстрочнаяМетод сохранения типа развёртки : Раздельные поляПорядок развёртки : Верхнее поле первоеБит/(Пиксели*Кадры) : 0.181Размер потока : 1,66 Гбайт (86%)Цветовой диапазон : LimitedОсновные цвета : BT.601 PALХарактеристики трансфера : BT.470 System B, BT.470 System GКоэффициенты матрицы : BT.470 System B, BT.470 System G

АудиоИдентификатор : 68 (0x44)Идентификатор меню : 1 (0x1)Формат : MPEG AudioВерсия формата : Version 1Профиль формата : Layer 2Идентификатор кодека : 3Продолжительность : 2 ч. 7 м.Вид битрейта : ПостоянныйБитрейт : 192 Кбит/секКаналы : 2 каналаЧастота : 48,0 КГцМетод сжатия : С потерямиЗадержка видео : -40 мс.Размер потока : 174 Мбайт (9%)Язык : English


Трекер:  [ 11-Июн-2018 13:24 ]

  

Скачать .torrent

Размер .torrent файла 19 KB


Размер: 1.93 GB
Хэш (hash) релиза: 9416c0487109de0861f0cbc9e91824c404bc2a24
Подписка на обновления:

Еще никто не оставлял запись к записи скачать торрент Аманат . Будь первым!

!Обратная связь