Скачать через торрент Код 211 211 Фильм бесплатно в хорошем качестве torrent

Скачивайте на UnionPeer.org фильмы через торрент без регистрации. Новинки кино в хорошем качестве через торрент. На UnionPeer.org можно скачать через торрент фильмы 2014 и 2015 годов. Самые новые фильмы.

Скачать торрент Код 211 211 бесплатно через .torrent фильм мультфильм сериал

Статистика раздачи
Размер:  1.37 GB   |    Зарегистрирован:  12 дней   |    .torrent скачан:  67 раз   |   
Раздают:  1  
   
загрузка...
 
Автор Сообщение

Galfimbul

avatar Galfimbul


Код 211 /211

Год выпуска: 2018
Страна: США
Жанр: боевик, драма, история
Перевод: Любительский многоголосый [MUZOBOZ]
Примечание: Релиз без рекламы
Продолжительность: 01:27:04
Режиссер: Йорк Шеклтон
В ролях: Николас Кейдж (Mike Chandler), Софи Скелтон (Lisa MacAvoy), Майкл Рейни мл. (Kenny), Дуэйн Камерон (Steve MacAvoy), Уэстон Кейдж (Luke), Кори Хардрикт (Hanson), Ори Феффер (Tre), Марк Баснайт (Police Chief), Аманда Серни (Sarah), Майкл Беллисарио (Hyde), Рэймонд Стирс (Mandell), Derek Horse (Floyd)
Описание:
Полицейский код 211 - ограбление банка. Такой сигнал получает офицер Чандлер во время своей смены. Он бросается на место событий, чтобы не позволить преступникам сбежать с добычей.
Рейтинг:
MPAA: R - Лицам до 17 лет обязательно присутствие взрослого
Качество: WEB-DLRip
Формат: AVI
Видео: XviD, 704x384 (1.85:1), 2050 kbps, 23,976 fps, 0,316 bpp
Аудио: AC3 / 2.0 / 48 kHz / 192 kbps /
Сэмпл
General
Complete name : F:211.(2018).MVO.WEB-DLRip.avi
Format : AVI
Format/Info : Audio Video Interleave
File size : 1.37 GiB
Duration : 1 h 27 min
Overall bit rate : 2 252 kb/s
Writing application : VirtualDubModRus 1.5.10.2 (build 2542/release)
Writing library : VirtualDubMod build 2542/release

Video
ID : 0
Format : MPEG-4 Visual
Format profile : Advanced Simple@L5
Format settings, BVOP : 1
Format settings, QPel : No
Format settings, GMC : No warppoints
Format settings, Matrix : Custom
Codec ID : XVID
Codec ID/Hint : XviD
Duration : 1 h 27 min
Bit rate : 2 051 kb/s
Width : 704 pixels
Height : 384 pixels
Display aspect ratio : 1.85:1
Frame rate : 23.976 (24000/1001) FPS
Color space : YUV
Chroma subsampling : 4:2:0
Bit depth : 8 bits
Scan type : Progressive
Compression mode : Lossy
Bits/(Pixel*Frame) : 0.316
Stream size : 1.25 GiB (91%)
Writing library : XviD 73

Audio
ID : 1
Format : AC-3
Format/Info : Audio Coding 3
Mode extension : CM (complete main)
Format settings, Endianness : Big
Codec ID : 2000
Duration : 1 h 27 min
Bit rate mode : Constant
Bit rate : 192 kb/s
Channel(s) : 2 channels
Channel positions : Front: L R
Sampling rate : 48.0 kHz
Frame rate : 31.250 FPS (1536 spf)
Compression mode : Lossy
Stream size : 120 MiB (9%)
Alignment : Split accross interleaves
Interleave, duration : 42 ms (1.00 video frame)
Interleave, preload duration : 500 ms
Источник http://blator.org

Трекер:  [ 13-Июн-2018 11:30 ]

  

Скачать .torrent

Размер .torrent файла 14 KB


Размер: 1.37 GB
Хэш (hash) релиза: 0f47e3d4eaa996677679fd2b279c0951411196e3
Подписка на обновления:

Торренты, похожие на Код 211 211 скачать торрент

Форум Название Автор Размер S L Добавлен
Зарубежные фильмы 2016-2018 (Новинки зарубежного кино) ·%· Код 211 / 211 (2018) WEB-DLRip от ExKinoRay | HDRezka Studio Galfimbul 781180928745 MB 0 0 1529428817

20:20

19-Июн-18

Зарубежные фильмы 2016-2018 (Новинки зарубежного кино) ·%· Код 211 / 211 (2018) WEB-DLRip от R.G.Resident | HDRezka Studio Galfimbul 14708408321.37 GB 0 0 1529320811

14:20

18-Июн-18

Зарубежные фильмы 2016-2018 (Новинки зарубежного кино) ·%· Код 211 / 211 (2018) WEB-DL 720p от ExKinoRay | HDRezka Studio Galfimbul 30397731702.83 GB 0 0 1529301616

09:00

18-Июн-18

Зарубежные фильмы 2016-2018 (Новинки зарубежного кино) ·%· Код 211 / 211 (2018) WEB-DL 1080p от ExKinoRay | HDRezka Studio Galfimbul 37662807603.51 GB 0 0 1529301607

09:00

18-Июн-18

Зарубежные фильмы 2016-2018 (Новинки зарубежного кино) ·· Код 211 / 211 (2018) WEB-DLRip-AVC от ExKinoRay | L Galfimbul 22844121522.13 GB 0 0 1529029225

05:20

15-Июн-18

Зарубежные фильмы 2016-2018 (Новинки зарубежного кино) ·· Код 211 / 211 (2018) WEB-DLRip | Android | L Galfimbul 692604572661 MB 0 0 1528897396

16:43

13-Июн-18

Зарубежные фильмы 2016-2018 (Новинки зарубежного кино) ·%· Код 211 / 211 (2018) WEB-DLRip-AVC от ivanes20031987 | MUZOBOZ Galfimbul 15002061951.4 GB 0 0 1528893089

15:31

13-Июн-18

Зарубежные фильмы 2016-2018 (Новинки зарубежного кино) ·· Код 211 / 211 (2018) WEBRip 720p от MIXTV | MUZOBOZ Galfimbul 22003269442.05 GB 0 0 1528840813

01:00

13-Июн-18

Зарубежные фильмы 2016-2018 (Новинки зарубежного кино) ·· Код 211 / 211 (2018) WEB-DL 1080p | L Galfimbul 37663203583.51 GB 0 0 1528839101

00:31

13-Июн-18

Еще никто не оставлял запись к записи скачать торрент Код 211 211 . Будь первым!

!Обратная связь