Скачать через торрент Султан моего сердца Kalbimin Sultanı Фильм бесплатно в хорошем качестве torrent

Скачивайте на UnionPeer.org фильмы через торрент без регистрации. Новинки кино в хорошем качестве через торрент. На UnionPeer.org можно скачать через торрент фильмы 2014 и 2015 годов. Самые новые фильмы.

Скачать торрент Султан моего сердца Kalbimin Sultanı бесплатно через .torrent фильм мультфильм сериал

Статистика раздачи
Размер:  1.42 GB   |    Зарегистрирован:  5 лет 8 месяцев   |    .torrent скачан:  68 раз   |   
Раздают:  1  
   
 
Автор Сообщение

Galfimbul

avatar Galfimbul


Султан моего сердца / Kalbimin Sultanı

Год выпуска: 2018
Страна: Турция, Россия
Производство: Киностудия КИТ, Maya Productions, Global Connection International Media Group
Жанр: Историческая мелодрама
Серии (количество): 1 (24)
Продолжительность: ~ 02:07:00 / каждая серия
Перевод: любительский одноголосый закадровый (turok1990)
Субтитры: отсутствуют

Режиссёр: Бобби Рот, Керем Чакироглу

В ролях: Али Эрсан Дуру, Александра Никифирова, Александр Соколовский, Эмель Чёлгечен, Энгин Хепилери, Гизем Денизджи, Айтен Сойкёка, Тунджер Салман, Танер Румели, Шамиль Кафкас

Описание: Стамбул, начало XIX века. Анна — дочь одного из чиновников, работающих в посольстве Российской империи. Она случайно знакомится с османским султаном Махмудом II. Впечатленный интеллектом и знаниями девушки, правитель приглашает ее работать учительницей его детей, но она поначалу отказывается и уступает только после того, как на нее начинает давить русский посол Дмитрий. Во время работы во дворце Анна понимает, что начинает влюбляться в Махмуда. Но она сталкивается с массой проблем, ведь дети султана не слушаются чужестранку, а обитательницы гарема воспринимают ее как соперницу. Этому есть причина: сам Махмуд тоже влюбляется в новую учительницу.
Сэмпл: http://multi-up.com/1201540
Качество: WEB-DLRip
Формат: AVI
Видео кодек: XviD
Аудио кодек: MP3
Видео: 720x400 (16:9), 25 fps, XviD build 50 ~1390 kbps avg, 0.185 bit/pixel
Аудио: 44.100 kHz, MPEG Layer 3, 2 ch, ~192.00 kbps avg
Реклама: Отсутствует
Формат : AVI
Формат/Информация : Audio Video Interleave
Размер файла : 1,42 Гбайт
Продолжительность : 2 ч. 7 м.
Общий поток : 1591 Кбит/сек

Видео
Идентификатор : 0
Формат : MPEG-4 Visual
Профиль формата : Simple@L5
Параметр BVOP формата : Нет
Параметр QPel формата : Нет
Параметр GMC формата : Без точки перехода
Параметр матрицы формата : Default (H.263)
Идентификатор кодека : XVID
Идентификатор кодека/Подсказка : XviD
Продолжительность : 2 ч. 7 м.
Битрейт : 1389 Кбит/сек
Ширина : 720 пикселей
Высота : 400 пикселей
Соотношение сторон : 16:9
Частота кадров : 25,000 кадров/сек
Цветовое пространство : YUV
Субдискретизация насыщенности : 4:2:0
Битовая глубина : 8 бит
Тип развёртки : Прогрессивная
Метод сжатия : С потерями
Бит/(Пиксели*Кадры) : 0.193
Размер потока : 1,24 Гбайт (87%)
Библиотека кодирования : XviD 73

Аудио
Идентификатор : 1
Формат : MPEG Audio
Версия формата : Version 1
Профиль формата : Layer 3
Режим : Joint stereo
Идентификатор кодека : 55
Идентификатор кодека/Подсказка : MP3
Продолжительность : 2 ч. 7 м.
Вид битрейта : Постоянный
Битрейт : 192 Кбит/сек
Каналы : 2 канала
Частота : 44,1 КГц
Метод сжатия : С потерями
Размер потока : 175 Мбайт (12%)
Выравнивание : Разделение по промежуткам
Продолжительность промежутка : 40 мс. (1,00 видеокадр)
Время предзагрузки промежутка : 500 мс.
Внимание! Раздача ведётся путём добавления новых серий; при каждом добавлении создётся новый торрент. Чтобы начать докачку новой серии, пользователям необходимо сделать следующее:

Остановить скачивание.
Удалить старый торрент у себя из клиента (старые серии удалять не надо).
Скачать новый торрент и запустить его у себя в клиенте вместо старого, при этом указать клиенту путь в старую папку куда и должно происходить скачивание новых серий.

Ваш клиент при этом должен произвести хеширование (проверку) старой папки (если не производит сам - помогите ему сделать это), и будет докачивать только те серии которых у вас ещё нет. Старые серии при этом не удаляются, а продолжают раздаваться!
Eсли вы уже удалили старые серии, то предотвратить повторную закачку старых серий можно, отжав галочку в соответсвующих местах при запуске нового торрента. По возможности, желательно не удалять старые серии как можно дольше чтобы релизёр не столько продолжал раздавать старые серии, а смог сконцентрироваться на новых.


Внимание! AdBlock блокирует показ скриншотов, все вопросы к разработчикам )))
Трекер:  [ 15-Июн-2018 00:48 ]

  

Скачать .torrent

Размер .torrent файла 14 KB


Размер: 1.42 GB
Хэш (hash) релиза: 191de9bd7150b1c4b8ba3153512b8cfb6363632c
Подписка на обновления:

Еще никто не оставлял запись к записи скачать торрент Султан моего сердца Kalbimin Sultanı . Будь первым!

!Обратная связь