Скачать через торрент Деревенские детективы Фильм бесплатно в хорошем качестве torrent

Скачивайте на UnionPeer.org фильмы через торрент без регистрации. Новинки кино в хорошем качестве через торрент. На UnionPeer.org можно скачать через торрент фильмы 2014 и 2015 годов. Самые новые фильмы.

Скачать торрент Деревенские детективы бесплатно через .torrent фильм мультфильм сериал

Статистика раздачи
Размер:  11.9 GB   |    Зарегистрирован:  3 месяца 28 дней   |    .torrent скачан:  34 раза   |   
Раздают:  1  
   
загрузка...
 
Автор Сообщение

Galfimbul

avatar Galfimbul


Деревенские детективы (Детективы из домика на дереве) / Treehouse Detectives

Страна: США
Жанр: Мультсериал, детский, комедия, приключения, познавательный
Продолжительность серии: 10 х ~ 00:22:00
Год выпуска: 2018
Перевод: Профессиональный (дублированный)

Режиссёр: Джош Мепхем, Грег Салливан
Роли озвучивали: Ли Келли, Эбби Тротт, Броди Аллен, Райан Бартли, Филс Самплер, Дженна Дэвис

Описание: Когда друзья-животные нуждаются в помощи, брат-сестра Тоби и Тери используют подсказки и следуют им, чтобы разгадать тайны на заднем дворе. Куда делись все гусеницы? Почему листья падают с деревьев? Навыки командной работы, решимость двух медведей и их милых друзей не оставят тайну неразгаданной в этом мультсериале для дошкольников.


Качество: WEB-DL 1080p
Формат: MKV
Видео: MPEG-4 AVC, 1920x1080 [16:9], 23.976 fps, ~ 5000 Kbps
Аудио 1: [Русский] AC3, 48 kHz, 6 ch, 384 Kbps
Аудио 2: [Английский] AC3, 48 kHz, 6 ch, 384 Kbps
Субтитры: Русские (Forced, Full), английские (Full SDH)
Релиз CasStudio - BenderBEST
ОбщееУникальный идентификатор : 248757074182213216957714115850952854067 (0xBB24DEAB831E131CF13B67EE35594A33)Полное имя : S:\Новая папка\Treehouse.Detectives.S01.1080p.WEB-DL.Rus.Eng_CasStudio\Treehouse.Detectives.S01E01.The.Case.of.the.Buzzing.Buddies.The.Case.of.the.Crazy.Cup.1080p.WEB-DL.Rus.Eng_CasStudio.mkvФормат : MatroskaВерсия формата : Version 4 / Version 2Размер файла : 1,10 ГбайтПродолжительность : 24 м.Режим общего битрейта : ПеременныйОбщий поток : 6577 Кбит/секНазвание фильма : Treehouse Detectives S01E01 The Case of the Buzzing Buddies / The Case of the Crazy CupДата кодирования : UTC 2018-06-12 08:49:51Программа кодирования : mkvmerge v24.0.0 ('Beyond The Pale') 64-bitБиблиотека кодирования : libebml v1.3.6 + libmatroska v1.4.9Обложка : YesAttachments : cover.jpg

ВидеоИдентификатор : 1Формат : AVCФормат/Информация : Advanced Video CodecПрофиль формата : Main@L4Параметр CABAC формата : ДаПараметр ReFrames формата : 3 кадраИдентификатор кодека : V_MPEG4/ISO/AVCПродолжительность : 24 м.Вид битрейта : ПеременныйБитрейт : 6190 Кбит/секМаксимальный битрейт : 9285 Кбит/секШирина : 1920 пикселейВысота : 1080 пикселейСоотношение сторон : 16:9Режим частоты кадров : ПостоянныйЧастота кадров : 23,976 (24000/1001) кадра/секЦветовое пространство : YUVСубдискретизация насыщенности : 4:2:0Битовая глубина : 8 битТип развёртки : ПрогрессивнаяБит/(Пиксели*Кадры) : 0.125Размер потока : 1,01 Гбайт (91%)Заголовок : MPEG-4 AVC @ 6190 kbpsБиблиотека кодирования : x264 core 148 r2715 7e75228Настройки программы : cabac=1 / ref=3 / deblock=1:0:0 / analyse=0x1:0x111 / me=umh / subme=10 / psy=1 / psy_rd=1.00:0.00 / mixed_ref=1 / me_range=24 / chroma_me=1 / trellis=2 / 8x8dct=0 / cqm=0 / deadzone=21,11 / fast_pskip=1 / chroma_qp_offset=-2 / threads=8 / lookahead_threads=1 / sliced_threads=0 / nr=0 / decimate=1 / interlaced=0 / bluray_compat=0 / stitchable=1 / constrained_intra=0 / bframes=2 / b_pyramid=0 / b_adapt=2 / b_bias=0 / direct=3 / weightb=1 / open_gop=0 / weightp=2 / keyint=48 / keyint_min=25 / scenecut=0 / intra_refresh=0 / rc_lookahead=48 / rc=2pass / mbtree=1 / bitrate=6190 / ratetol=1.0 / qcomp=0.50 / qpmin=6 / qpmax=51 / qpstep=4 / cplxblur=20.0 / qblur=0.5 / vbv_maxrate=9285 / vbv_bufsize=12380 / nal_hrd=vbr / filler=0 / ip_ratio=1.40 / aq=1:1.00Default : ДаForced : Нет

Аудио #1Идентификатор : 2Формат : AACФормат/Информация : Advanced Audio CodecПрофиль формата : HE-AAC / LCИдентификатор кодека : A_AACПродолжительность : 24 м.Битрейт : 96,0 Кбит/секКаналы : 2 каналаРасположение каналов : Front: L RЧастота : 48,0 КГц / 24,0 КГцЧастота кадров : 23,438 кадра/сек (1024 spf)Метод сжатия : С потерямиРазмер потока : 16,3 Мбайт (1%)Заголовок : AAC 2.0 @ 96 kbpsЯзык : RussianDefault : ДаForced : Нет

Аудио #2Идентификатор : 3Формат : AC-3Формат/Информация : Audio Coding 3Расширение режима : CM (complete main)Параметр Endianness формата : BigИдентификатор кодека : A_AC3Продолжительность : 24 м.Вид битрейта : ПостоянныйБитрейт : 384 Кбит/секКаналы : 6 каналовРасположение каналов : Front: L C R, Side: L R, LFEЧастота : 48,0 КГцЧастота кадров : 31,250 кадров/сек (1536 spf)Метод сжатия : С потерямиРазмер потока : 66,0 Мбайт (6%)Заголовок : DD 5.1 @ 384 kbpsЯзык : EnglishDefault : НетForced : Нет

Аудио #3Идентификатор : 4Формат : AACФормат/Информация : Advanced Audio CodecПрофиль формата : HE-AAC / LCИдентификатор кодека : A_AACПродолжительность : 24 м.Битрейт : 96,0 Кбит/секКаналы : 2 каналаРасположение каналов : Front: L RЧастота : 48,0 КГц / 24,0 КГцЧастота кадров : 23,438 кадра/сек (1024 spf)Метод сжатия : С потерямиРазмер потока : 16,3 Мбайт (1%)Заголовок : AAC 2.0 @ 96 kbpsЯзык : EnglishDefault : НетForced : Нет

Текст #1Идентификатор : 5Формат : UTF-8Идентификатор кодека : S_TEXT/UTF8Идентификатор кодека/Информация : UTF-8 Plain TextПродолжительность : 11 м.Битрейт : 1 бит/секCount of elements : 4Размер потока : 169 байт (0%)Заголовок : SRT - ForcedЯзык : RussianDefault : ДаForced : Да

Текст #2Идентификатор : 6Формат : UTF-8Идентификатор кодека : S_TEXT/UTF8Идентификатор кодека/Информация : UTF-8 Plain TextПродолжительность : 22 м.Битрейт : 89 бит/секCount of elements : 338Размер потока : 15,0 Кбайт (0%)Заголовок : SRT - FullЯзык : RussianDefault : НетForced : Нет

Текст #3Идентификатор : 7Формат : UTF-8Идентификатор кодека : S_TEXT/UTF8Идентификатор кодека/Информация : UTF-8 Plain TextПродолжительность : 22 м.Битрейт : 73 бит/секCount of elements : 414Размер потока : 12,1 Кбайт (0%)Заголовок : SRT - Full SDHЯзык : EnglishDefault : НетForced : Нет


Трекер:  [ 18-Июн-2018 13:54 ]

  

Скачать .torrent

Размер .torrent файла 61 KB


Размер: 11.9 GB
Хэш (hash) релиза: 59343203edba8bd7c66a2f87030ca7fb04a74503
Подписка на обновления:

Еще никто не оставлял запись к записи скачать торрент Деревенские детективы . Будь первым!

!Обратная связь