Скачать через торрент MTV Movie & TV Awards 2018 Фильм бесплатно в хорошем качестве torrent

Скачивайте на UnionPeer.org фильмы через торрент без регистрации. Новинки кино в хорошем качестве через торрент. На UnionPeer.org можно скачать через торрент фильмы 2014 и 2015 годов. Самые новые фильмы.

Скачать торрент MTV Movie & TV Awards 2018 бесплатно через .torrent фильм мультфильм сериал

Статистика раздачи
Размер:  7.22 GB   |    Зарегистрирован:  4 месяца 28 дней   |    .torrent скачан:  27 раз   |   
Раздают:  1  
   
загрузка...
 
Автор Сообщение

Galfimbul

avatar Galfimbul


MTV Movie & TV Awards 2018

Дата/Год выпуска: 2018
Страна: США
Жанр: Церемония Награждения
Продолжительность: 01:20:00
Перевод: Отсутствует
Русские субтитры: нет

Оригинальная аудиодорожка: английский
Телеканал: MTV HD (East)
Автор рипа/записи: ilya2129

Описание: MTV Movie & TV Awards 2018 — 27-я церемония вручения кино- и теленаград канала MTV за 2017 год состоится 18 июня 2018 года. Номинанты были объявлены 3 мая 2018 года. Ведущей церемонии выступит комедийная актриса Тиффани Хэддиш.

качество: HDTVRip
формат: TS/M2TS
Видео: MPEG2, 1920x1080, 16:9, 11900 kb/s, 29,970fps
Аудио: AC3, 384kbps, 48000Hz, 2ch
ОбщееИдентификатор : 1 (0x1)Полное имя : E:\TR\MTV Movie & TV Awards 2018.tsФормат : MPEG-TSРазмер файла : 7,22 ГбайтПродолжительность : 1 ч. 20 м.Режим общего битрейта : ПеременныйОбщий поток : 12,9 Мбит/секОграничение по возрасту : TV-14 (DL)

ВидеоИдентификатор : 6401 (0x1901)Идентификатор меню : 1 (0x1)Формат : MPEG VideoВерсия формата : Version 2Профиль формата : Main@HighНастройки формата : BVOPПараметр BVOP формата : ДаПараметр матрицы формата : По умолчаниюПараметр GOP формата : VariableСтруктура изображения : FrameИдентификатор кодека : 2Продолжительность : 1 ч. 20 м.Вид битрейта : ПеременныйБитрейт : 11,9 Мбит/секМаксимальный битрейт : 64,0 Мбит/секШирина : 1920 пикселейВысота : 1080 пикселейСоотношение сторон : 16:9Описание активного формата : Letterbox 16:9 imageЧастота кадров : 29,970 (30000/1001) кадров/секЦветовое пространство : YUVСубдискретизация насыщенности : 4:2:0Битовая глубина : 8 битТип развёртки : ЧересстрочнаяПорядок развёртки : Верхнее поле первоеМетод сжатия : С потерямиБит/(Пиксели*Кадры) : 0.191Временной код первого кадра : 00:00:00;00Оригинал временного кода : Group of pictures headerРазмер потока : 6,65 Гбайт (92%)

АудиоИдентификатор : 6402 (0x1902)Идентификатор меню : 1 (0x1)Формат : AC-3Формат/Информация : Audio Coding 3Идентификатор кодека : 129Продолжительность : 1 ч. 20 м.Вид битрейта : ПостоянныйБитрейт : 384 Кбит/секКаналы : 2 каналаРасположение каналов : Front: L RЧастота : 48,0 КГцЧастота кадров : 31,250 кадров/сек (1536 SPF)Битовая глубина : 16 битМетод сжатия : С потерямиЗадержка видео : 11 мс.Размер потока : 220 Мбайт (3%)Язык : EnglishServiceKind/String : Complete Main

Текст #1Идентификатор : 6401 (0x1901)-CC1Идентификатор меню : 1 (0x1)Формат : EIA-608Режим смешивания : A/53 / DTVCC TransportРежим смешивания, доп. информация : Muxed in Video #1Продолжительность : 1 ч. 20 м.Вид битрейта : ПостоянныйРазмер потока : 0,00 байт (0%)CaptionServiceName : CC1

Текст #2Идентификатор : 6401 (0x1901)-1Идентификатор меню : 1 (0x1)Формат : EIA-708Режим смешивания : A/53 / DTVCC TransportРежим смешивания, доп. информация : Muxed in Video #1Продолжительность : 1 ч. 20 м.Вид битрейта : ПостоянныйРазмер потока : 0,00 байт (0%)

Текст #3Идентификатор : 6401 (0x1901)-CC1Идентификатор меню : 1 (0x1)Формат : EIA-608Режим смешивания : SCTE 20Режим смешивания, доп. информация : Muxed in Video #1Продолжительность : 1 ч. 20 м.Вид битрейта : ПостоянныйРазмер потока : 0,00 байт (0%)CaptionServiceName : CC1


Трекер:  [ 19-Июн-2018 10:42 ]

  

Скачать .torrent

Размер .torrent файла 18 KB


Размер: 7.22 GB
Хэш (hash) релиза: 7ff7a8f9a225ba26a8fb6505e37d8ef02bd28729
Подписка на обновления:

Торренты, похожие на MTV Movie & TV Awards 2018 скачать торрент

Форум Название Автор Размер S L Добавлен
Развлекательные телепередачи и шоу ·%· MTV Movie & TV Awards 2018 (на русском) [2018, Церемония Награждения, DVB] Galfimbul 16809967361.57 GB 0 0 1529736129

09:42

23-Июн-18

Еще никто не оставлял запись к записи скачать торрент MTV Movie & TV Awards 2018 . Будь первым!

!Обратная связь