Скачать через торрент Молчание моря The Silence of the Sea Фильм бесплатно в хорошем качестве torrent

Скачивайте на UnionPeer.org фильмы через торрент без регистрации. Новинки кино в хорошем качестве через торрент. На UnionPeer.org можно скачать через торрент фильмы 2014 и 2015 годов. Самые новые фильмы.

Скачать торрент Молчание моря The Silence of the Sea бесплатно через .torrent фильм мультфильм сериал

Статистика раздачи
Размер:  12.04 GB   |    Зарегистрирован:  5 лет 8 месяцев   |    .torrent скачан:  51 раз   |   
Раздают:  1  
   
 
Автор Сообщение

Galfimbul

avatar Galfimbul


Молчание моря / The Silence of the Sea / Le silence de la Mer / Criterion Collection#755

Страна:ФранцияСтудия:Melville Productions.
Жанр:Драма, Мелодрама, Военный
Год выпуска:1949
Продолжительность:01:27:21Производство:The Criterion Collection #755
Перевод:Одноголосый (закадровый) mangeim
Субтитры:Английские, Русские NosoglotkaОригинальная аудиодорожка:Французский
Премьера (мир):22.04.1949
Режиссер:Жан-Пьер Мельвиль / Jean-Pierre MelvilleВ ролях:
Говард Вернон, Николь Стефани, Жан-Мари Робен, Ами Аарэ, Жорж Патрикс, Дени Садье, Рюдель, Макс Фромм, Клод Вернье, Макс ХэрманОписание:
По одноименному рассказу Жана Веркора.
Во время немецкой оккупации в дом к старику-французу и его племяннице поселяют немецкого офицера. Они вынуждены жить с врагом под одной крышей. В бесконечных монологах о литературе, искусстве, судьбах Германии и Франции немец пытается оправдать себя и свою страну, но в ответ встречает лишь молчание…


Доп. информация:Исходник найден в сети.Огромное Спасибо Всем, без чьей помощи этот релиз не состоялся бы!
Сценарий:Веркор, Жан-Пьер МельвильПродюсер:Марсель Картье, Жан-Пьер Мельвиль
Оператор:Анри ДекэКомпозитор:Эдгар Бишофф
Монтаж:Анри Декэ, Жан-Пьер Мельвиль
Жан-Пьер Мельвиль-https://ru.wikipedia.org/wiki/Мельвиль,_Жан-ПьерФильм-https://fr.wikipedia.org/wiki/Le_Silence_de_la_mer_(film,_1947)
PgcDemux 1.2.0.5 - разделение компонентов диска на файлы.
BeHappy, BeLight - AC3 -> Wav.
Sound Forge pro 10 - синхронизация звука. Minnetonka SurCode - Wav -> AC3. Adobe Audition -> PAL - NTSC
Subtitle Workshop, MaestroSBT, SubtitleCreator, DVD SubEdit (субтитры).
MuxMan DVD authoring Professional - мультиплексирование и авторинг.
DVDRemake Pro 3.6.4 - реавторинг DVD.
DVD Shrink 3.2 - Сэмпл.


Диск 1





Диск 2




--The short 24 Hours in the Life of a Clown (1946)-Avo (А.Алексеев), director Jean-Pierre Melville’s first film
--New interview with film scholar Ginette Vincendeau
--Code Name Melville (2008), a seventy-six-minute documentary on Melville’s time in the French Resistance and his films about it
--Melville Steps Out of the Shadows (2010), a forty-two-minute documentary about Le silence de la mer
--Interview with Melville from 1959
--New English subtitle translation
Меню:Английский, статичное, озвученное.
Сэмпл Диск 1:
Сэмпл Диск 2:
Тип релиза:2хDVD9 (Custom)
Контейнер:DVD-Video
Видео:NTSC 4:3 (720x480) VBR, 6641 Кбит/сек, 23,976 (24000/1001) кадра/секАудио 1:Русский:AC3, 1 ch, 48.0 KHz, 192 Кбит/сек / Одноголосый (закадровый) mangeim
Аудио 2:Французский:AC3, 1 ch, 48.0 KHz, 384 Кбит/сек / Оригинал
Формат субтитров:prerendered (DVD/IDX+SUB)
Title: disk 1
Size: 4.45 Gb ( 4 664 584,00 KBytes ) - DVD-9
Enabled regions: 1, 2, 3, 4, 5, 6, 7, 8

VTS_02 :
Play Length: 01:27:21
Video: NTSC 4:3 (720x480) VBR
Audio:
Russian (Dolby AC3, 1 ch)
Francais (Dolby AC3, 1 ch)
Subtitles:
English
Russian

VTS_03 :
Play Length: 00:00:20
Video: NTSC 4:3 (720x480) VBR

VTS_04 :
Play Length: 00:00:00
Video: NTSC 4:3 (720x480) VBR
[b]Title: VIDEO_TS
Size: 7.57 Gb ( 7 933 720,00 KBytes ) - DVD-9
Enabled regions: 1, 2, 3, 4, 5, 6, 7, 8

VTS_02 :
Play Length: 00:17:08
Video: NTSC 16:9 (720x480) VBR, Auto Letterboxed
Audio:
English (Dolby AC3, 1 ch)
Subtitles:
English

VTS_03 :
Play Length: 00:18:25
Video: NTSC 4:3 (720x480) VBR
Audio:
Francais (Dolby AC3, 1 ch)
Subtitles:
English

VTS_04 :
Play Length: 00:42:17
Video: NTSC 16:9 (720x480) VBR, Auto Letterboxed
Audio:
Francais (Dolby AC3, 1 ch)
Subtitles:
English

VTS_05 :
Play Length: 00:01:43
Video: NTSC 4:3 (720x480) VBR
Audio:
Francais (Dolby AC3, 1 ch)
Subtitles:
English

VTS_06 :
Play Length: 01:16:35
Video: NTSC 16:9 (720x480) VBR, Auto Letterboxed
Audio:
Francais (Dolby AC3, 2 ch)
Subtitles:
English

VTS_07 :
Play Length: 00:00:00
Video: NTSC 4:3 (720x480) VBR
[b]Общее
Полное имя : F:\Le Silence De La Mer 2хDVD-9_Custom_Criterion#755\диск 1\VIDEO_TS\VTS_02_1.VOB
Формат : MPEG-PS
Размер файла : 1024 Мбайт
Продолжительность : 19 м. 26 с.
Режим общего битрейта : Переменный
Общий поток : 7363 Кбит/сек

Аудио #1
Идентификатор : 189 (0xBD)-128 (0x80)
Формат : AC-3
Формат/Информация : Audio Coding 3
Режим смешивания : DVD-Video
Продолжительность : 19 м. 26 с.
Вид битрейта : Постоянный
Битрейт : 192 Кбит/сек
Каналы : 1 канал
Расположение каналов : Front: C
Частота : 48,0 КГц
Частота кадров : 31,250 кадров/сек (1536 SPF)
Битовая глубина : 16 бит
Метод сжатия : С потерями
Размер потока : 26,7 Мбайт (3%)
ServiceKind/String : Complete Main

Аудио #2
Идентификатор : 189 (0xBD)-129 (0x81)
Формат : AC-3
Формат/Информация : Audio Coding 3
Режим смешивания : DVD-Video
Продолжительность : 19 м. 26 с.
Вид битрейта : Постоянный
Битрейт : 384 Кбит/сек
Каналы : 1 канал
Расположение каналов : Front: C
Частота : 48,0 КГц
Частота кадров : 31,250 кадров/сек (1536 SPF)
Битовая глубина : 16 бит
Метод сжатия : С потерями
Размер потока : 53,4 Мбайт (5%)
ServiceKind/String : Complete Main

Текст #1
Идентификатор : 189 (0xBD)-32 (0x20)
Формат : RLE
Формат/Информация : Run-length encoding
Режим смешивания : DVD-Video

Текст #2
Идентификатор : 189 (0xBD)-33 (0x21)
Формат : RLE
Формат/Информация : Run-length encoding
Режим смешивания : DVD-Video
[b]Общее
Полное имя : F:\Le Silence De La Mer 2хDVD-9_Custom_Criterion#755\диск 2\VIDEO_TS\VTS_03_1.VOB
Формат : MPEG-PS
Размер файла : 938 Мбайт
Продолжительность : 18 м. 26 с.
Режим общего битрейта : Переменный
Общий поток : 7114 Кбит/сек

Аудио #1
Идентификатор : 189 (0xBD)-128 (0x80)
Формат : AC-3
Формат/Информация : Audio Coding 3
Режим смешивания : DVD-Video
Продолжительность : 18 м. 26 с.
Вид битрейта : Постоянный
Битрейт : 192 Кбит/сек
Каналы : 2 канала
Расположение каналов : Front: L R
Частота : 48,0 КГц
Частота кадров : 31,250 кадров/сек (1536 SPF)
Битовая глубина : 16 бит
Метод сжатия : С потерями
Размер потока : 25,3 Мбайт (3%)
ServiceKind/String : Complete Main

Аудио #2
Идентификатор : 189 (0xBD)-129 (0x81)
Формат : AC-3
Формат/Информация : Audio Coding 3
Режим смешивания : DVD-Video
Продолжительность : 18 м. 26 с.
Вид битрейта : Постоянный
Битрейт : 192 Кбит/сек
Каналы : 1 канал
Расположение каналов : Front: C
Частота : 48,0 КГц
Частота кадров : 31,250 кадров/сек (1536 SPF)
Битовая глубина : 16 бит
Метод сжатия : С потерями
Размер потока : 25,3 Мбайт (3%)
ServiceKind/String : Complete Main
<div class="sp-wrap">
<div class="sp-head folded">Полиграфия
</div>
<div class="sp-body">








</div>
</div>
[b]Релиз:
Уважаемые пользователи!Найдите пару минут поблагодарить релизера и высказаться в топике раздачи.
Ваше мнение - бальзам для раздающего и пища для ума остальным пользователям.
Мои раздачи

Внимание! AdBlock блокирует показ скриншотов, все вопросы к разработчикам )))
Трекер:  [ 22-Июн-2018 18:01 ]

  

Скачать .torrent

Размер .torrent файла 64 KB


Размер: 12.04 GB
Хэш (hash) релиза: e9c862e18c7e382a78878daead1dbbad8f5428b7
Подписка на обновления:

Еще никто не оставлял запись к записи скачать торрент Молчание моря The Silence of the Sea . Будь первым!

!Обратная связь