Скачать через торрент Спецагент Арчер Арчер Фильм бесплатно в хорошем качестве torrent

Скачивайте на UnionPeer.org фильмы через торрент без регистрации. Новинки кино в хорошем качестве через торрент. На UnionPeer.org можно скачать через торрент фильмы 2014 и 2015 годов. Самые новые фильмы.

Скачать торрент Спецагент Арчер Арчер бесплатно через .torrent фильм мультфильм сериал

Статистика раздачи
Размер:  1.63 GB   |    Зарегистрирован:  3 месяца 24 дня   |    .torrent скачан:  38 раз   |   
Раздают:  1  
   
загрузка...
 
Автор Сообщение

Galfimbul

avatar Galfimbul


Спецагент Арчер / Арчер / Archer
Страна: США
Жанр: Мультфильм, боевик, комедия
Продолжительность серии: 00:20:54
Год выпуска: 2018
Перевод: Профессиональный (многоголосый закадровый) - Кубик в кубе & Бяко Рекордс
Русские субтитры: нет
Режиссёр: Адам Рид, Брайан Фордни
Роли озвучивали: Х. Джон Бенжамин, Джуди Грир, Эмбер Нэш, Крис Парнелл, Аиша Тайлер, Джессика Уолтер, Адам Рид
Описание: В международном шпионском агенстве ISIS любой мировой кризис — лишь предлог для высококлассных секретных агентов посоревноваться между собой в обмане и предательстве. Главным героем мультсериала является спецагент Стерлинг Арчер, известный также под кодовым именем «Герцогиня». На службе Арчеру приходится мириться со своей эксцентричной мамашей/начальницей — Мэлори, бывшей подружкой Ланой, озабоченной секретаршей Шерил и другими «интересными личностями».
Семпл: http://multi-up.com/1202179

Качество: WEB-DLRip
Формат: AVI
Видео: 720x400 (16:9), 23.976 fps, XviD build 64, 1603 Kbps, 0.23 bit/pixel
Аудио 1: MPEG Layer 3, 48.0 KHz, 2 ch, 128 Kbps [Rus]
Аудио 2: MPEG Layer 3, 48.0 KHz, 2 ch, 128 Kbps [Eng]
Субтитры: отсутствуют
Озвучка: Руслан Габидуллин, Константин Погодаев, Ольга Кравцова, Анна Тух (Кубик в кубе & Бяко Рекордс)
Перевод: Юрий Башенкер
Постер: Vortex
General Complete name : Downloads\Archer (Season 09) NewStudio\Archer.s09e01.WEBDLRip.NewStudio.avi Format : AVI Format/Info : Audio Video Interleave File size : 280 MiB Duration : 20mn 54s Overall bit rate : 1 873 Kbps Writing application : VirtualDubMod 1.5.10.2 (build 2540/release) Writing library : VirtualDubMod build 2540/release Video #0 ID : 0 Format : MPEG-4 Visual Format profile : Advanced Simple@L5 Format settings, BVOP : 2 Format settings, QPel : Yes Format settings, GMC : No warppoints Format settings, Matrix : Default (MPEG) Muxing mode : Packed bitstream Codec ID : XVID Codec ID/Hint : XviD Duration : 20mn 54s Bit rate : 1 603 Kbps Width : 720 pixels Height : 400 pixels Display aspect ratio : 16:9 Frame rate : 23.976 fps Color space : YUV Chroma subsampling : 4:2:0 Bit depth : 8 bits Scan type : Progressive Compression mode : Lossy Bits/(Pixel*Frame) : 0.232 Stream size : 240 MiB (86%) Writing library : XviD 67 Audio #1 ID : 1 Format : MPEG Audio Format version : Version 1 Format profile : Layer 3 Mode : Joint stereo Mode extension : MS Stereo Codec ID : 55 Codec ID/Hint : MP3 Duration : 20mn 54s Bit rate mode : Constant Bit rate : 128 Kbps Channel(s) : 2 channels Sampling rate : 48.0 KHz Compression mode : Lossy Stream size : 19.1 MiB (7%) Alignment : Aligned on interleaves Interleave, duration : 42 ms (1.00 video frame) Interleave, preload duration : 504 ms Audio #2 ID : 2 Format : MPEG Audio Format version : Version 1 Format profile : Layer 3 Mode : Joint stereo Mode extension : MS Stereo Codec ID : 55 Codec ID/Hint : MP3 Duration : 20mn 54s Bit rate mode : Constant Bit rate : 128 Kbps Channel(s) : 2 channels Sampling rate : 48.0 KHz Compression mode : Lossy Stream size : 19.1 MiB (7%) Alignment : Aligned on interleaves Interleave, duration : 42 ms (1.00 video frame) Interleave, preload duration : 504 ms Writing library : LAME3.99.5
Предыдущие и альтернативные раздачи

Трекер:  [ 22-Июн-2018 20:54 ]

  

Скачать .torrent

Размер .torrent файла 17 KB


Размер: 1.63 GB
Хэш (hash) релиза: a83e926669701cf0ac9d541647fe78d1ca6fa8bd
Подписка на обновления:

Торренты, похожие на Спецагент Арчер Арчер скачать торрент

Форум Название Автор Размер S L Добавлен
Мультсериалы ·· Спецагент Арчер / Archer / Сезон: 9 / Серии: 1-6 из 8 (Адам Рид / Adam Reed) [2018, шпионская комедия, WEB-DL 720p] MVO (Кубик в Кубе & БЯКО Рекордс) + Original + Sub (Rus, Eng) Galfimbul 40565162133.78 GB 0 0 1529171653

20:54

16-Июн-18

Еще никто не оставлял запись к записи скачать торрент Спецагент Арчер Арчер . Будь первым!

!Обратная связь