Скачать через торрент Что? Где? Когда? Летняя серия. Пятая Игра Фильм бесплатно в хорошем качестве torrent

Скачивайте на UnionPeer.org фильмы через торрент без регистрации. Новинки кино в хорошем качестве через торрент. На UnionPeer.org можно скачать через торрент фильмы 2014 и 2015 годов. Самые новые фильмы.

Скачать торрент Что? Где? Когда? Летняя серия. Пятая Игра бесплатно через .torrent фильм мультфильм сериал

Статистика раздачи
Размер:  669 MB   |    Зарегистрирован:  4 месяца 22 дня   |    .torrent скачан:  37 раз   |   
Раздают:  1  
   
загрузка...
 
Автор Сообщение

Galfimbul

avatar Galfimbul


Что? Где? Когда? Летняя серия. Пятая Игра

Дата/Год выпуска: 24.06.2018
Страна: Россия
Жанр: Телеигра
Продолжительность: 00:46:44
Перевод: Не требуется
Телеканал: Первый HD
Описание: Пятая Игра Летней Серии 2018г Элитарного клуба ЧГК

Доп. информация: команда Балаша Касумова
1. Михаил Скипский
2. Елизавета Овдеенко
3. Юлия Лазарева
4. Дмитрий Авдеенко
5. Эльман Талыбов
6. Балаш Касумов

качество: HDTVRip
формат: MKV
Видео: AVC at 1772 Кбит/сек Aspect : 720 x 404 (1.782) at 25.000 fps
Аудио: AC-3 at 192 Кбит/сек Infos : 2 канала, 48,0 КГц
ОбщееУникальный идентификатор : 171098131525464729271566448164157150638 (0x80B84D2EAB38690294D5F23E28BE55AE)Полное имя : E:\kodirovany\ЧГК.24.06.2018.HDTVRip.AVC.Doc66.mkvФормат : MatroskaВерсия формата : Version 2Размер файла : 669 МбайтПродолжительность : 46 м.Общий поток : 2003 Кбит/секДата кодирования : UTC 2018-06-24 23:59:57Программа кодирования : mkvmerge v6.1.0 ('Old Devil') built on Mar 4 2013 09:10:42Библиотека кодирования : libebml v1.3.0 + libmatroska v1.4.0

ВидеоИдентификатор : 1Формат : AVCФормат/Информация : Advanced Video CodecПрофиль формата : High@L3.1Параметр CABAC формата : ДаПараметр ReFrames формата : 8 кадровИдентификатор кодека : V_MPEG4/ISO/AVCПродолжительность : 46 м.Битрейт : 1772 Кбит/секШирина : 720 пикселейВысота : 404 пикселяСоотношение сторон : 16:9Режим частоты кадров : ПостоянныйЧастота кадров : 25,000 кадров/секЦветовое пространство : YUVСубдискретизация насыщенности : 4:2:0Битовая глубина : 8 битТип развёртки : ПрогрессивнаяБит/(Пиксели*Кадры) : 0.244Размер потока : 591 Мбайт (88%)Библиотека кодирования : x264 core 130 r2273 b3065e6Настройки программы : cabac=1 / ref=8 / deblock=1:-2:-1 / analyse=0x3:0x113 / me=umh / subme=9 / psy=1 / psy_rd=1.00:0.15 / mixed_ref=1 / me_range=24 / chroma_me=1 / trellis=2 / 8x8dct=1 / cqm=0 / deadzone=21,11 / fast_pskip=1 / chroma_qp_offset=-3 / threads=6 / lookahead_threads=1 / sliced_threads=0 / nr=0 / decimate=1 / interlaced=0 / bluray_compat=0 / constrained_intra=0 / bframes=10 / b_pyramid=2 / b_adapt=2 / b_bias=0 / direct=1 / weightb=1 / open_gop=0 / weightp=2 / keyint=250 / keyint_min=25 / scenecut=40 / intra_refresh=0 / rc=crf / mbtree=0 / crf=19.0 / qcomp=0.60 / qpmin=0 / qpmax=69 / qpstep=4 / ip_ratio=1.40 / pb_ratio=1.30 / aq=2:0.70Default : ДаForced : НетЦветовой диапазон : LimitedОсновные цвета : BT.709Характеристики трансфера : BT.709Коэффициенты матрицы : BT.709

АудиоИдентификатор : 2Формат : AC-3Формат/Информация : Audio Coding 3Расширение режима : CM (complete main)Параметр Endianness формата : BigИдентификатор кодека : A_AC3Продолжительность : 46 м.Вид битрейта : ПостоянныйБитрейт : 192 Кбит/секКаналы : 2 каналаРасположение каналов : Front: L RЧастота : 48,0 КГцМетод сжатия : С потерямиРазмер потока : 64,1 Мбайт (10%)Default : ДаForced : Нет


Трекер:  [ 25-Июн-2018 08:12 ]

  

Скачать .torrent

Размер .torrent файла 3 KB


Размер: 669 MB
Хэш (hash) релиза: 2b4a50d14853b890a3a1bad05e41791f181b1af0
Подписка на обновления:

Торренты, похожие на Что? Где? Когда? Летняя серия. Пятая Игра скачать торрент

Форум Название Автор Размер S L Добавлен
Развлекательные телепередачи и шоу ·%· Что? Где? Когда? Летняя серия. Пятая Игра [24.06.2018, Телеигра, HDTV 1080i] Galfimbul 38852111963.62 GB 0 0 1529876546

00:42

25-Июн-18

Развлекательные телепередачи и шоу ·· Что? Где? Когда? - Летняя серия игр 2015 года - Игра пятая. Финал (Эфир 28.06.2015) (Борис Крюк) [2015, Интеллектуальная игра, HDTV 1080i] Galfimbul 42850633203.99 GB 0 0 1435526274

00:17

29-Июн-15

Еще никто не оставлял запись к записи скачать торрент Что? Где? Когда? Летняя серия. Пятая Игра . Будь первым!

!Обратная связь