Скачать через торрент Невидимый гость Contratiempo Фильм бесплатно в хорошем качестве torrent

Скачивайте на UnionPeer.org фильмы через торрент без регистрации. Новинки кино в хорошем качестве через торрент. На UnionPeer.org можно скачать через торрент фильмы 2014 и 2015 годов. Самые новые фильмы.

Скачать торрент Невидимый гость Contratiempo бесплатно через .torrent фильм мультфильм сериал

Статистика раздачи
Размер:  19.18 GB   |    Зарегистрирован:  5 лет 7 месяцев   |    .torrent скачан:  84 раза   |   
Раздают:  1  
 

Скачать Невидимый гость / Contratiempo / The Invisible Guest (2016) BDRemux 1080p от ExKinoRay | GER Transfer | iTunes через torrent

 
 
Автор Сообщение

Galfimbul

avatar Galfimbul


Невидимый гость /Contratiempo / The Invisible Guest

Год выхода: 2016
Жанр: Триллер
Режиссер: Ориол Паоло
В ролях: Марио Касас, Хосе Коронадо, Барбара Ленни, Ана Вахенер, Франсеск Орелья, Кристиан Валенсиа, Пако Тоус, Бетси Тунес, Давид Сельвас

О фильме:
Молодой бизнесмен Эдриан Дориа просыпается в закрытом изнутри номере отеля рядом с бездыханным телом своей любовницы. Его обвиняют в убийстве, но он, не считая себя виновным, решает воспользоваться услугами Вирджинии Гудман, лучшего в стране специалиста по выходу из самых сложных ситуаций. В течение одной ночи консультант и её клиент будут работать, чтобы найти разумное опровержение обвинению, и, тем самым, высвободить его из тюрьмы.



Страна: Испания
Студия: Atresmedia, Atresmedia Cine, Colos? Producciones, Movistar+
Продолжительность: 01:46:02
Перевод: Дублированный | iTunes

Файл
Качество: BDRemux 1080p
Видео: MPEG-4 AVC, 1920x1080, 23.6 Mbit/s, 24.000 fps
Звук:
Аудио #01: 48 kHz, AC3, 5.1, 384 Kbps | iTunes | RUS |
Аудио #02: 48 kHz, DTS-HD MA, 5.1, 1960 Kbps | Оригинал | SPA |
Субтитры: Русские (full), английские

General
Unique ID : 182332964816598482771728556023603145989 (0x892C0D3AD4639389DC1C4920CB422D05)
Complete name : D:Video111Contratiempo.2016.BDREMUX.1080p.ExKinoRay (1).mkv
Format : Matroska
Format version : Version 4 / Version 2
File size : 19.2 GiB
Duration : 1 h 46 min
Overall bit rate mode : Variable
Overall bit rate : 25.9 Mb/s
Movie name : Contratiempo 2016 from ExKinoRay
Encoded date : UTC 2018-06-26 14:53:00
Writing application : mkvmerge v23.0.0 ('The Bride Said No') 64-bit
Writing library : libebml v1.3.6 + libmatroska v1.4.9

Video
ID : 1
Format : AVC
Format/Info : Advanced Video Codec
Format profile : [email protected]
Format settings : CABAC / 4 Ref Frames
Format settings, CABAC : Yes
Format settings, ReFrames : 4 frames
Codec ID : V_MPEG4/ISO/AVC
Duration : 1 h 46 min
Bit rate mode : Variable
Bit rate : 23.6 Mb/s
Maximum bit rate : 35.0 Mb/s
Width : 1 920 pixels
Height : 1 080 pixels
Display aspect ratio : 16:9
Frame rate mode : Constant
Frame rate : 24.000 FPS
Standard : NTSC
Color space : YUV
Chroma subsampling : 4:2:0
Bit depth : 8 bits
Scan type : Progressive
Bits/(Pixel*Frame) : 0.473
Stream size : 17.4 GiB (91%)
Language : Spanish
Default : Yes
Forced : No
Color range : Limited
Color primaries : BT.709
Transfer characteristics : BT.709
Matrix coefficients : BT.709

Audio #1
ID : 2
Format : AC-3
Format/Info : Audio Coding 3
Codec ID : A_AC3
Duration : 1 h 46 min
Bit rate mode : Constant
Bit rate : 384 kb/s
Channel(s) : 6 channels
Channel positions : Front: L C R, Side: L R, LFE
Sampling rate : 48.0 kHz
Frame rate : 31.250 FPS (1536 SPF)
Bit depth : 16 bits
Compression mode : Lossy
Stream size : 291 MiB (1%)
Title : iTunes
Language : Russian
Service kind : Complete Main
Default : Yes
Forced : Yes

Audio #2
ID : 3
Format : DTS
Format/Info : Digital Theater Systems
Format profile : MA / Core
Codec ID : A_DTS
Duration : 1 h 46 min
Bit rate mode : Variable / Constant
Bit rate : 1 960 kb/s / 1 509 kb/s
Channel(s) : 6 channels
Channel positions : Front: L C R, Side: L R, LFE
Sampling rate : 48.0 kHz
Frame rate : 93.750 FPS (512 SPF)
Bit depth : 16 bits
Compression mode : Lossless / Lossy
Stream size : 1.45 GiB (8%)
Title : Original
Language : Spanish
Default : No
Forced : No

Text #1
ID : 4
Format : UTF-8
Codec ID : S_TEXT/UTF8
Codec ID/Info : UTF-8 Plain Text
Duration : 1 h 40 min
Bit rate : 108 b/s
Count of elements : 1104
Stream size : 80.1 KiB (0%)
Title : Full
Language : Russian
Default : No
Forced : No

Text #2
ID : 5
Format : UTF-8
Codec ID : S_TEXT/UTF8
Codec ID/Info : UTF-8 Plain Text
Duration : 1 h 39 min
Bit rate : 58 b/s
Count of elements : 1223
Stream size : 42.8 KiB (0%)
Title : Full
Language : English
Default : No
Forced : No

Menu
00:00:00.000 : en:00:00:00.000
00:08:11.292 : en:00:08:11.292
00:16:51.583 : en:00:16:51.583
00:24:57.458 : en:00:24:57.458
00:33:23.750 : en:00:33:23.750
00:42:03.875 : en:00:42:03.875
00:50:58.500 : en:00:50:58.500
01:00:14.833 : en:01:00:14.833
01:08:56.708 : en:01:08:56.708
01:18:00.750 : en:01:18:00.750
01:22:04.958 : en:01:22:04.958
01:30:27.375 : en:01:30:27.375
Подпишись на меня, кликни по картинке [b]> : [/b]


Источник http://BlaTor.org

Внимание! AdBlock блокирует показ скриншотов, все вопросы к разработчикам )))
Трекер:  [ 26-Июн-2018 18:20 ]

  

Скачать .torrent

Размер .torrent файла 24 KB


Размер: 19.18 GB
Хэш (hash) релиза: 6e65d0e582bcd745e46dd4c5bbe02710649b952c
Подписка на обновления:

Торренты, похожие на Невидимый гость Contratiempo скачать торрент

Форум Название Автор Размер S L Добавлен
Зарубежные фильмы до 2016 ·· Невидимый гость / Contratiempo / The Invisible Guest (Ориол Паоло / Oriol Paulo) [2016, Испания, триллер, криминал, детектив, BDRip 1080p] MVO (AlexFilm) + VO (С. Малиновский) + Original (Spa) + Sub (Rus, Eng) Galfimbul 1094289828010.19 GB 0 0 1520723863

02:17

11-Мар-18

Еще никто не оставлял запись к записи скачать торрент Невидимый гость Contratiempo . Будь первым!

!Обратная связь