Скачать через торрент Лео и Тиг Серии 1-19 Лео и Тиг Фильм бесплатно в хорошем качестве torrent

Скачивайте на UnionPeer.org фильмы через торрент без регистрации. Новинки кино в хорошем качестве через торрент. На UnionPeer.org можно скачать через торрент фильмы 2014 и 2015 годов. Самые новые фильмы.

Скачать торрент Лео и Тиг Серии 1-19 Лео и Тиг бесплатно через .torrent фильм мультфильм сериал

Статистика раздачи
Размер:  2 GB   |    Зарегистрирован:  5 месяцев 16 дней   |    .torrent скачан:  72 раза   |   
Раздают:  1  
   
загрузка...
 
Автор Сообщение

Galfimbul

avatar Galfimbul


Лео и Тиг Серии 1-19 / Лео и Тиг

Страна: Россия
Жанр: мультсериал
Продолжительность серии: 00:11:00
Год выпуска: 2017-2018
Русские субтитры: есть

Описание: Отличный российский мультфильм про маленьких друзей леопарда Лео и тигренка Тига, которые делают свои первые шаги в тайге под руководством мудрого наставника-гризли Мапа Пандига. Мультик сделан в лучших традициях отечественной мультипликации, что лишь подчеркивает отличный сюжет и сказочное исполнение картинки и звука авторов.

Качество: HDRip
Формат: MP4
Видео: MPG4 1280х720
Аудио: AAC 44 Hz 2ch 125 KBt/s
Субтитры: Русские
GeneralComplete name : F:\Mult\Лео и Тиг\Лео и Тиг - Подкидыш - Мультфильмы для детей о жителях тайги - серия 18 (1).mp4Format : MPEG-4Format profile : Base Media / Version 2Codec ID : mp42 (isom/mp42)File size : 105 MiBDuration : 11mn 0sOverall bit rate mode : VariableOverall bit rate : 1 332 KbpsEncoded date : UTC 2018-05-10 09:25:01Tagged date : UTC 2018-05-10 09:25:01gsst : 0gstd : 660050

VideoID : 1Format : AVCFormat/Info : Advanced Video CodecFormat profile : Main@L3.1Format settings, CABAC : YesFormat settings, ReFrames : 3 framesCodec ID : avc1Codec ID/Info : Advanced Video CodingDuration : 11mn 0sBit rate : 1 203 KbpsWidth : 1 280 pixelsHeight : 720 pixelsDisplay aspect ratio : 16:9Frame rate mode : ConstantFrame rate : 25.000 fpsColor space : YUVChroma subsampling : 4:2:0Bit depth : 8 bitsScan type : ProgressiveBits/(Pixel*Frame) : 0.052Stream size : 94.6 MiB (90%)Title : ISO Media file produced by Google Inc. Created on: 05/10/2018.Encoded date : UTC 2018-05-10 09:25:01Tagged date : UTC 2018-05-10 09:25:01Color range : LimitedColor primaries : BT.709Transfer characteristics : BT.709Matrix coefficients : BT.709

AudioID : 2Format : AACFormat/Info : Advanced Audio CodecFormat profile : LCCodec ID : 40Duration : 11mn 0sSource duration : 11mn 0sBit rate mode : VariableBit rate : 126 KbpsChannel(s) : 2 channelsChannel positions : Front: L RSampling rate : 44.1 KHzFrame rate : 43.066 fps (1024 spf)Compression mode : LossyStream size : 9.88 MiB (9%)Source stream size : 9.88 MiB (9%)Title : ISO Media file produced by Google Inc. Created on: 05/10/2018.Language : EnglishEncoded date : UTC 2018-05-10 09:25:01Tagged date : UTC 2018-05-10 09:25:01
Предыдущие и альтернативные раздачи

Трекер:  [ 26-Июн-2018 18:54 ]

  

Скачать .torrent

Размер .torrent файла 23 KB


Размер: 2 GB
Хэш (hash) релиза: 9a56a08a17548d32087d76e58b043ce97083b4c3
Подписка на обновления:

Еще никто не оставлял запись к записи скачать торрент Лео и Тиг Серии 1-19 Лео и Тиг . Будь первым!

!Обратная связь