Скачать через торрент Эдди «Орел» Eddie the Eagle Фильм бесплатно в хорошем качестве torrent

Скачивайте на UnionPeer.org фильмы через торрент без регистрации. Новинки кино в хорошем качестве через торрент. На UnionPeer.org можно скачать через торрент фильмы 2014 и 2015 годов. Самые новые фильмы.

Скачать торрент Эдди «Орел» Eddie the Eagle бесплатно через .torrent фильм мультфильм сериал

Статистика раздачи
Размер:  4.18 GB   |    Зарегистрирован:  5 лет 8 месяцев   |    .torrent скачан:  89 раз   |   
Раздают:  1  
 

Скачать Эдди «Орел» / Eddie the Eagle (2016) BDRip-HEVC 1080p | D через torrent

 
 
Автор Сообщение

Galfimbul

avatar Galfimbul


• Страна: Великобритания, США, Германия
• Жанр: драма, комедия, биография, спорт
• Год выпуска: 2016
• Продолжительность: 01:45:43
• Перевод: Дублированный
• Субтитры: Русские (Forced, Full), английские (Full)
• Оригинальная аудиодорожка: Есть
• Режиссер: Декстер Флетчер / Dexter Fletcher
• В ролях: Тэрон Эджертон (Eddie Edwards), Хью Джекман (Bronson Peary), Кристофер Уокен (Warren Sharp), Джо Хартли (Janette), Том Костелло (Eddie (10 years old)), Кит Аллен (Terry), Дикон Толсон (UK Doctor), Джек Костелло (Eddie (15 years old)), Марк Бентон (Richmond the BOA Official), Тим МакИннерни (Dustin Target), Эдвин Эндре (Matti Nyk?nen), Мэдс Сьёгард Петтерсен (Erik Moberg)
• Описание: Фильм повествует о трамплинисте Эдди, по прозвищу «Орел». Он прославился благодаря своим неудачам, ибо на всех соревнованиях он занимал последние места.

• Релиз:
• Тип релиза: BDRip 1080p
• Контейнер: MKV
• Видео: x265, 10Bit, 1920х804 (16:9), 23,976 fps, ~4 766 kb/s, 0.129 bit/pixe
• Аудио #1: Русский (AC3, 6 ch, 448 Кбит/с) / Дублированный (BD CEE)
• Аудио #2: Английский (AC3, 6 ch, 448 Кбит/с)
General
Unique ID : 334198033999311218392669962822835014289 (0xFB6C3339FAFFD2A96D49EB65582C8A91)
Complete name : N:Эдди «Орёл» (2016).mkv
Format : Matroska
Format version : Version 4 / Version 2
File size : 4.18 GiB
Duration : 1 h 45 min
Overall bit rate : 5 665 kb/s
Encoded date : UTC 2018-06-26 16:56:24
Writing application : mkvmerge v24.0.0 ('Beyond The Pale') 64-bit
Writing library : libebml v1.3.6 + libmatroska v1.4.9
Cover : Yes
Attachments : cover.jpg
Encoding Gui : Hybrid 2018.06.04.1

Video
ID : 4
Format : HEVC
Format/Info : High Efficiency Video Coding
Format profile : Main [email protected]@High
Codec ID : V_MPEGH/ISO/HEVC
Duration : 1 h 45 min
Bit rate : 4 766 kb/s
Width : 1 920 pixels
Height : 804 pixels
Display aspect ratio : 2.40:1
Frame rate mode : Constant
Frame rate : 23.976 (24000/1001) FPS
Color space : YUV
Chroma subsampling : 4:2:0 (Type 0)
Bit depth : 10 bits
Bits/(Pixel*Frame) : 0.129
Stream size : 3.52 GiB (84%)
Writing library : x265 2.8+12-9cde2c278464:[Windows][GCC 7.3.0][64 bit] 10bit
Encoding settings : cpuid=1049071 / frame-threads=4 / wpp / no-pmode / no-pme / no-psnr / no-ssim / log-level=2 / input-csp=1 / input-res=1920x804 / interlace=0 / total-frames=0 / level-idc=51 / high-tier=1 / uhd-bd=0 / ref=5 / no-allow-non-conformance / no-repeat-headers / annexb / no-aud / no-hrd / info / hash=0 / no-temporal-layers / open-gop / min-keyint=23 / keyint=240 / gop-lookahead=0 / bframes=8 / b-adapt=2 / b-pyramid / bframe-bias=0 / rc-lookahead=40 / lookahead-slices=5 / scenecut=40 / radl=0 / no-intra-refresh / ctu=64 / min-cu-size=8 / rect / no-amp / max-tu-size=32 / tu-inter-depth=3 / tu-intra-depth=3 / limit-tu=4 / rdoq-level=2 / dynamic-rd=0.00 / no-ssim-rd / signhide / no-tskip / nr-intra=0 / nr-inter=0 / no-constrained-intra / no-strong-intra-smoothing / max-merge=3 / limit-refs=3 / limit-modes / me=3 / subme=7 / merange=57 / temporal-mvp / weightp / weightb / no-analyze-src-pics / deblock=-3:-3 / no-sao / no-sao-non-deblock / rd=4 / no-early-skip / rskip / no-fast-intra / no-tskip-fast / no-cu-lossless / no-b-intra / no-splitrd-skip / rdpenalty=0 / psy-rd=2.00 / psy-rdoq=1.00 / no-rd-refine / no-lossless / cbqpoffs=0 / crqpoffs=0 / rc=crf / crf=16.0 / qcomp=0.60 / qpstep=4 / stats-write=0 / stats-read=0 / vbv-maxrate=160000 / vbv-bufsize=160000 / vbv-init=0.9 / crf-max=0.0 / crf-min=0.0 / ipratio=1.40 / pbratio=1.30 / aq-mode=1 / aq-strength=1.00 / cutree / zone-count=1 / zones: / start-frame=145215 / end-frame=152089 / qp=35 / no-strict-cbr / qg-size=32 / no-rc-grain / qpmax=69 / qpmin=0 / no-const-vbv / sar=0 / overscan=0 / videoformat=5 / range=0 / colorprim=2 / transfer=2 / colormatrix=1 / chromaloc=1 / chromaloc-top=0 / chromaloc-bottom=0 / display-window=0 / max-cll=0,0 / min-luma=0 / max-luma=1023 / log2-max-poc-lsb=8 / vui-timing-info / vui-hrd-info / slices=1 / no-opt-qp-pps / no-opt-ref-list-length-pps / no-multi-pass-opt-rps / scenecut-bias=0.05 / no-opt-cu-delta-qp / no-aq-motion / no-hdr / no-hdr-opt / no-dhdr10-opt / no-idr-recovery-sei / analysis-reuse-level=5 / scale-factor=0 / refine-intra=0 / refine-inter=0 / refine-mv=0 / no-limit-sao / ctu-info=0 / no-lowpass-dct / refine-mv-type=0 / copy-pic=1 / max-ausize-factor=1.0 / no-dynamic-refine / no-single-sei
Language : English
Default : Yes
Forced : Yes
Color range : Limited
Matrix coefficients : BT.709

Audio #1
ID : 5
Format : AC-3
Format/Info : Audio Coding 3
Codec ID : A_AC3
Duration : 1 h 45 min
Bit rate mode : Constant
Bit rate : 448 kb/s
Channel(s) : 6 channels
Channel positions : Front: L C R, Side: L R, LFE
Sampling rate : 48.0 kHz
Frame rate : 31.250 FPS (1536 SPF)
Bit depth : 16 bits
Compression mode : Lossy
Stream size : 339 MiB (8%)
Title : DUB [Blu-Ray CEE]
Language : Russian
Service kind : Complete Main
Default : Yes
Forced : No

Audio #2
ID : 6
Format : AC-3
Format/Info : Audio Coding 3
Codec ID : A_AC3
Duration : 1 h 45 min
Bit rate mode : Constant
Bit rate : 448 kb/s
Channel(s) : 6 channels
Channel positions : Front: L C R, Side: L R, LFE
Sampling rate : 48.0 kHz
Frame rate : 31.250 FPS (1536 SPF)
Bit depth : 16 bits
Compression mode : Lossy
Stream size : 339 MiB (8%)
Title : Original
Language : English
Service kind : Complete Main
Default : No
Forced : No

Text #1
ID : 1
Format : UTF-8
Codec ID : S_TEXT/UTF8
Codec ID/Info : UTF-8 Plain Text
Duration : 1 h 40 min
Bit rate : 2 b/s
Count of elements : 25
Stream size : 1.53 KiB (0%)
Title : Forced
Language : Russian
Default : Yes
Forced : No

Text #2
ID : 2
Format : UTF-8
Codec ID : S_TEXT/UTF8
Codec ID/Info : UTF-8 Plain Text
Duration : 1 h 40 min
Bit rate : 88 b/s
Count of elements : 1143
Stream size : 65.0 KiB (0%)
Title : Full
Language : Russian
Default : No
Forced : No

Text #3
ID : 3
Format : UTF-8
Codec ID : S_TEXT/UTF8
Codec ID/Info : UTF-8 Plain Text
Duration : 1 h 39 min
Bit rate : 55 b/s
Count of elements : 1105
Stream size : 40.5 KiB (0%)
Title : Full
Language : English
Default : No
Forced : No

Menu
00:00:00.000 : en:Chapter 01
00:03:33.171 : en:Chapter 02
00:08:15.161 : en:Chapter 03
00:12:06.684 : en:Chapter 04
00:17:54.573 : en:Chapter 05
00:21:31.081 : en:Chapter 06
00:26:19.578 : en:Chapter 07
00:31:41.566 : en:Chapter 08
00:37:13.272 : en:Chapter 09
00:41:46.962 : en:Chapter 10
00:47:12.329 : en:Chapter 11
00:50:19.349 : en:Chapter 12
00:53:39.591 : en:Chapter 13
00:56:57.580 : en:Chapter 14
01:02:22.905 : en:Chapter 15
01:08:16.884 : en:Chapter 16
01:11:42.298 : en:Chapter 17
01:17:05.787 : en:Chapter 18
01:20:00.587 : en:Chapter 19
01:23:23.456 : en:Chapter 20
01:27:44.592 : en:Chapter 21
01:31:40.119 : en:Chapter 22
01:36:53.057 : en:Chapter 23
01:40:42.077 : en:Chapter 24
Источник http://BlaTor.org

Внимание! AdBlock блокирует показ скриншотов, все вопросы к разработчикам )))
Трекер:  [ 26-Июн-2018 21:10 ]

  

Скачать .torrent

Размер .torrent файла 11 KB


Размер: 4.18 GB
Хэш (hash) релиза: c9b82e2af0489b92308a858d5ee40cf3e1e3282b
Подписка на обновления:

Торренты, похожие на Эдди «Орел» Eddie the Eagle скачать торрент

Форум Название Автор Размер S L Добавлен
Зарубежные фильмы 2016-2019 (Новинки зарубежного кино) ·· Эдди «Орел» / Eddie the Eagle (Декстер Флетчер / Dexter Fletcher) [2016, Великобритания, США, Германия, драма, комедия, биография, спорт, BDRip] Dub CEE + Original Eng + Sub Rus, Ukr, Eng Galfimbul 23444491872.18 GB 0 0 1473451769

23:09

9-Сен-16

Зарубежные фильмы до 2016 ·· Эдди «Орел» / Eddie the Eagle (Декстер Флетчер / Dexter Fletcher) [2016, Великобритания, США, Германия, драма, комедия, биография, спорт, BDRip 720p] Dub + Sub Rus, Eng + Original Eng Galfimbul 52003811274.84 GB 0 0 1471899418

23:56

22-Авг-16

Зарубежные фильмы до 2016 ·· Эдди «Орел» / Eddie the Eagle (Декстер Флетчер / Dexter Fletcher) [2016, Великобритания, США, Германия, драма, комедия, биография, спорт, BDRip 1080p] Dub + Sub Rus, Eng + Original Eng Galfimbul 106649115099.93 GB 0 0 1471899414

23:56

22-Авг-16

Зарубежные фильмы 2016-2019 (Новинки зарубежного кино) ·· Эдди «Орел» / Eddie the Eagle (Декстер Флетчер / Dexter Fletcher) [2016, Великобритания, США, Германия, драма, комедия, биография, BDRip-AVC] Dub + Sub (rus) Galfimbul 782442397746 MB 0 0 1471864373

14:12

22-Авг-16

Трейлеры и дополнительные материалы ·· Эдди «Орел» / Eddie the Eagle (Декстер Флетчер) [2016, Драма | Комедия | Биография | Спорт, BDRip 720p] дополнительные материалы Galfimbul 15483126181.44 GB 0 0 1471681384

11:23

20-Авг-16

Зарубежные фильмы 2016-2019 (Новинки зарубежного кино) ·· Эдди «Орёл» / Eddie the Eagle (Декстер Флетчер / Dexter Fletcher) [2016, Великобритания, драма, комедия, биография, спорт, BDRip-AVC] Dub + Original Eng + Sub (Rus, Eng) Galfimbul 23330512852.17 GB 0 0 1471642171

00:29

20-Авг-16

Зарубежные фильмы 2016-2019 (Новинки зарубежного кино) ·· Эдди «Орел» / Eddie the Eagle (Декстер Флетчер / Dexter Fletcher) [2016, Великобритания, США, Германия, драма, комедия, биография, спорт, Blu-ray CEE 1080p] Galfimbul 4652486985143.33 GB 0 0 1471597302

12:01

19-Авг-16

Зарубежные фильмы 2016-2019 (Новинки зарубежного кино) ·· Эдди «Орел» / Eddie the Eagle (Декстер Флетчер / Dexter Fletcher) [2016, Великобритания, США, Германия, драма, комедия, биография, спорт, BDRip] Dub (CEE) Galfimbul 781027328745 MB 0 0 1471539492

19:58

18-Авг-16

Зарубежные фильмы 2016-2019 (Новинки зарубежного кино) ·· Эдди «Орел» / Eddie the Eagle (Декстер Флетчер / Dexter Fletcher) [2016, Великобритания, США, Германия, драма, комедия, биография, спорт, BDRip 1080p] Лицензия Galfimbul 1169417396110.89 GB 0 0 1471515234

13:13

18-Авг-16

Зарубежные фильмы 2016-2019 (Новинки зарубежного кино) ·· Эдди «Орел» / Eddie the Eagle (Декстер Флетчер / Dexter Fletcher) [2016, Великобритания, США, Германия, драма, комедия, биография, спорт, BDRip 720p] Лицензия Galfimbul 62454015685.82 GB 0 0 1471515228

13:13

18-Авг-16

Зарубежные фильмы 2016-2019 (Новинки зарубежного кино) ·· Эдди «Орел» / Eddie the Eagle (Декстер Флетчер / Dexter Fletcher) [2016, Великобритания, Драма, комедия, биография, спорт, BDRip] Dub (iTunes) Galfimbul 15645757441.46 GB 0 0 1465756748

21:39

12-Июн-16

Зарубежные фильмы 2016-2019 (Новинки зарубежного кино) ·· Эдди «Орёл» / Eddie the Eagle (Декстер Флетчер / Dexter Fletcher) [2016, Великобритания, драма, комедия, биография, спорт, BDRip-AVC] Dub + Original + Sub (rus, eng) Galfimbul 22820137542.13 GB 0 0 1465738301

16:31

12-Июн-16

Зарубежные фильмы 2016-2019 (Новинки зарубежного кино) ·· Эдди «Орел» / Eddie the Eagle (Декстер Флетчер / Dexter Fletcher) [2016, Великобритания, Драма, комедия, биография, спорт, BDRemux 1080p] Tunes Galfimbul 2780096934225.89 GB 0 0 1465650646

16:10

11-Июн-16

Зарубежные фильмы 2016-2019 (Новинки зарубежного кино) ·· Эдди «Орел» / Eddie the Eagle (Декстер Флетчер / Dexter Fletcher) [2016, Великобритания, Драма, комедия, биография, спорт, BDRip 720p] iTunes Galfimbul 74387443226.93 GB 0 0 1465488676

19:11

9-Июн-16

Зарубежные фильмы 2016-2019 (Новинки зарубежного кино) ·· Эдди «Орел» / Eddie the Eagle (Декстер Флетчер / Dexter Fletcher) [2016, Великобритания, Драма, комедия, биография, спорт, WEB-DL 720p] iTunes Galfimbul 35180896293.28 GB 0 0 1465171810

03:10

6-Июн-16

Зарубежные фильмы 2016-2019 (Новинки зарубежного кино) ·· Эдди «Орел» / Eddie the Eagle (Декстер Флетчер / Dexter Fletcher) [2016, Великобритания, Драма, комедия, биография, спорт, WEB-DLRip-AVC] Dub (iTunes) + Original (Eng) + Subs (Rus, Eng) Galfimbul 15650260641.46 GB 0 0 1464555763

00:02

30-Май-16

Зарубежные фильмы 2016-2019 (Новинки зарубежного кино) ·· Эдди «Орел» / Eddie the Eagle (Декстер Флетчер / Dexter Fletcher) [2016, Великобритания, Драма, комедия, биография, спорт, WEB-DLRip] Dub (iTunes) Galfimbul 15669084161.46 GB 0 0 1464344413

13:20

27-Май-16

Зарубежные фильмы 2016-2019 (Новинки зарубежного кино) ·· Эдди «Орел» / Eddie the Eagle (Декстер Флетчер / Dexter Fletcher) [2016, Великобритания, США, Германия, драма, комедия, биография, спорт, WEB-DLRip] Dub (iTunes) Galfimbul 781209600745 MB 0 0 1464344406

13:20

27-Май-16

Зарубежные фильмы 2016-2019 (Новинки зарубежного кино) ·· Эдди «Орел» / Eddie the Eagle (Декстер Флетчер) [2016, драма, комедия, биография, спорт, WEBRip 720p] Line Galfimbul 38502666883.59 GB 0 0 1462700667

12:44

8-Май-16

Еще никто не оставлял запись к записи скачать торрент Эдди «Орел» Eddie the Eagle . Будь первым!

!Обратная связь