Скачать через торрент Superman 1941 Супермэн 1941 Фильм бесплатно в хорошем качестве torrent

Скачивайте на UnionPeer.org фильмы через торрент без регистрации. Новинки кино в хорошем качестве через торрент. На UnionPeer.org можно скачать через торрент фильмы 2014 и 2015 годов. Самые новые фильмы.

Скачать торрент Superman 1941 Супермэн 1941 бесплатно через .torrent фильм мультфильм сериал

Статистика раздачи
Размер:  7.23 GB   |    Зарегистрирован:  3 месяца 19 дней   |    .torrent скачан:  28 раз   |   
Раздают:  1  
   
загрузка...
 
Автор Сообщение

Galfimbul

avatar Galfimbul



The Superman Cartoons of Max & Dave Fleischer / Супермен 1941
The Complete Series

Год выпуска: 1941-1943
Страна: США
Жанр: фантастика
Продолжительность: От 7 до 10 минут
Перевод: Профессиональный (многоголосый, закадровый)
Субтитры: Отсутствуют

Режиссер: Дэйв Флейчер / Dave Fleischer

В ролях: Супермэн, Льюис Лэйн
Описание: Быстрее пули! Сильнее локомотива! Одним прыжком перепрыгивающий высотное здание! Это удивительный пришелец с планеты Криптон - стальной человек, Супермен! Наделённый невероятной физической силой, Супермен ведёт борьбу за справедливость, скрываясь под видом скромного репортёра Кларка Кента!

Доп. информация: Это NTSC издание! На трекере отсутствует! Ничего не пережималось и не перекодировалось

Качество: DVD-Remux (NTSC)
Формат: MKV
Видео кодек: MPEG2
Аудио кодек: AC3 / PCM
Видео: MPEG-2 Video | NTSC | 4:3 | 720x480 | 29.970 fps | ~4628 Kbps/
Общее
Уникальный идентификатор : 325976883721402922333950208221134307615 (0xF53CDD392D6D25159D4CF0C73EB1C11F)
Полное имя : D:\Ремуксы\[AORE] SUPERMAN 1941\01. Superman.mkv
Формат : Matroska
Версия формата : Version 4 / Version 2
Размер файла : 473 Мбайт
Продолжительность : 10 м. 23 с.
Режим общего битрейта : Переменный
Общий поток : 6362 Кбит/сек
Дата кодирования : UTC 2018-06-24 17:38:54
Программа кодирования : mkvmerge v23.0.0 ('The Bride Said No') 64-bit
Библиотека кодирования : libebml v1.3.6 + libmatroska v1.4.9

Видео
Идентификатор : 3
Формат : MPEG Video
Версия формата : Version 2
Профиль формата : Main@Main
Настройки формата : BVOP
Параметр BVOP формата : Да
Параметр матрицы формата : По умолчанию
Параметр GOP формата : M=3, N=12
Идентификатор кодека : V_MPEG2
Идентификатор кодека/Информация : MPEG 1 or 2 Video
Продолжительность : 10 м. 23 с.
Вид битрейта : Переменный
Битрейт : 4628 Кбит/сек
Максимальный битрейт : 7500 Кбит/сек
Ширина : 720 пикселей
Высота : 480 пикселей
Соотношение сторон : 4:3
Режим частоты кадров : Переменный
Частота кадров : 29,731 кадров/сек
Частота кадров в оригинале : 29,970 (30000/1001) кадров/сек
Цветовое пространство : YUV
Субдискретизация насыщенности : 4:2:0
Битовая глубина : 8 бит
Метод сжатия : С потерями
Бит/(Пиксели*Кадры) : 0.450
Временной код первого кадра : 00:59:58:00
Оригинал временного кода : Group of pictures header
GOP, открыто/закрыто : Открыто
GOP, открыто/закрыто на первом кадре : Закрыто
Размер потока : 344 Мбайт (73%)
Default : Да
Forced : Нет

Аудио #1
Идентификатор : 1
Формат : AC-3
Формат/Информация : Audio Coding 3
Идентификатор кодека : A_AC3
Продолжительность : 10 м. 23 с.
Вид битрейта : Постоянный
Битрейт : 192 Кбит/сек
Каналы : 2 канала
Расположение каналов : Front: L R
Частота : 48,0 КГц
Частота кадров : 31,250 кадров/сек (1536 SPF)
Битовая глубина : 16 бит
Метод сжатия : С потерями
Размер потока : 14,3 Мбайт (3%)
Язык : Russian
ServiceKind/String : Complete Main
Default : Да
Forced : Нет

Аудио #2
Идентификатор : 2
Формат : PCM
Настройки формата : Little / Signed
Идентификатор кодека : A_PCM/INT/LIT
Продолжительность : 10 м. 23 с.
Вид битрейта : Постоянный
Битрейт : 1536 Кбит/сек
Каналы : 2 канала
Частота : 48,0 КГц
Частота кадров : 32,001 кадра/сек (1500 SPF)
Битовая глубина : 16 бит
Размер потока : 114 Мбайт (24%)
Язык : English
Default : Нет
Forced : Нет
Fleischer Studios
01. Superman
02. Mechanical Monsters
03. Billion Dollar Limited
04. Arctic Giant
05. Bulleteers
06. Magnetic Telescope
07. Electric Earthquake
08. Volcano
09. Terror on the midway
Famous Studios
10. Japoteurs
11. Showdown
12. Eleventh Hour
13. Destruction
14. Mummy Strikes
15. Jungle Drums
16. Underground
17. Secret Agent
18. Snafuperman (без перевода)
PAL
NTSC
PAL
NTSC
PAL
NTSC
PAL
NTSC
PAL издание
Rip с PAL издания
VHS-рип
Сэмпл
Мои ремуксы


Трекер:  [ 27-Июн-2018 14:24 ]

  

Скачать .torrent

Размер .torrent файла 37 KB


Размер: 7.23 GB
Хэш (hash) релиза: 7d1ed5583df7a91a629a51f59b99a68576f72c59
Подписка на обновления:

Еще никто не оставлял запись к записи скачать торрент Superman 1941 Супермэн 1941 . Будь первым!

!Обратная связь