Скачать через торрент iБой iBoy Фильм бесплатно в хорошем качестве torrent

Скачивайте на UnionPeer.org фильмы через торрент без регистрации. Новинки кино в хорошем качестве через торрент. На UnionPeer.org можно скачать через торрент фильмы 2014 и 2015 годов. Самые новые фильмы.

Скачать торрент iБой iBoy бесплатно через .torrent фильм мультфильм сериал

Статистика раздачи
Размер:  7.27 GB   |    Зарегистрирован:  5 лет 7 месяцев   |    .torrent скачан:  111 раз   |   
Раздают:  1  
 

Скачать iБой / iBoy (2017) WEBRip 1080p | L через torrent

 
 
Автор Сообщение

Galfimbul

avatar Galfimbul


iБой /iBoy

Год выхода: 2017
Жанр: фантастика, боевик, триллер, криминал
Режиссер: Адам Рэндолл
В ролях: Мэйси Уильямс, Рори Киннер, Миранда Ричардсон, Билл Милнер, Чарли Палмер Ротуэлл, Сьюзэн Фордхэм, МакКелл Дэвид, Джордан Болджер, Камерон Джек

О фильме:
После столкновения с местными отморозками в мозг Тома попадают осколки его собственного смартфона. Выйдя из комы он понимает, что возвращение к нормальной подростковой жизни невозможно, потому что у него появились суперспособности.



Страна: Великобритания
Студия: NetFlix, Pretty Pictures, Wigwam Films, XYZ Films
Продолжительность: 01:30:06
Перевод: Любительский многоголосый | Внимание!
Присутствует ненормативная лексика!

Файл
Кодек: x.264
Качество: WEBRip 1080p
Видео: MPEG-4 AVC, 1920x800, 10.9 Mбит/с, 23.976 кадр/с
Звук:
Аудио #1: Русский ( AC3, 2ch, 224 Кбит/с, 48.0 KHz) Любительский (многоголосный, закадровый) Red Voice
Аудио #2: Английский ( AC3, 6ch, 384 Кбит/с, 48.0 KHz)
Субтитры: английские
Источник: iBoy.2017.1080p.NF.WEBRip.DD5.1.x264-SB
General
Unique ID : 212748316207777499550910625994197942636 (0xA00DD5D4ED369E2D9DB8864B2F1FC16C)
Complete name : iBoy.2017.WEBRip.1080p.mkv
Format : Matroska
Format version : Version 4 / Version 2
File size : 7.27 GiB
Duration : 1 h 30 min
Overall bit rate : 11.5 Mb/s
Encoded date : UTC 2018-06-27 23:12:35
Writing application : mkvmerge v7.1.0 ('Good Love') 64bit built on Jul 27 2014 13:06:55
Writing library : libebml v1.3.0 + libmatroska v1.4.1

Video
ID : 1
Format : AVC
Format/Info : Advanced Video Codec
Format profile : [email protected]
Format settings : CABAC / 5 Ref Frames
Format settings, CABAC : Yes
Format settings, ReFrames : 5 frames
Codec ID : V_MPEG4/ISO/AVC
Duration : 1 h 30 min
Bit rate : 10.9 Mb/s
Width : 1 920 pixels
Height : 800 pixels
Display aspect ratio : 2.40:1
Frame rate mode : Constant
Frame rate : 23.976 (24000/1001) FPS
Color space : YUV
Chroma subsampling : 4:2:0
Bit depth : 8 bits
Scan type : Progressive
Bits/(Pixel*Frame) : 0.297
Stream size : 6.88 GiB (95%)
Language : English
Default : Yes
Forced : No
Color range : Limited
Matrix coefficients : BT.709

Audio #1
ID : 2
Format : AC-3
Format/Info : Audio Coding 3
Codec ID : A_AC3
Duration : 1 h 30 min
Bit rate mode : Constant
Bit rate : 224 kb/s
Channel(s) : 2 channels
Channel positions : Front: L R
Sampling rate : 48.0 kHz
Frame rate : 31.250 FPS (1536 SPF)
Bit depth : 16 bits
Compression mode : Lossy
Stream size : 144 MiB (2%)
Language : Russian
Service kind : Complete Main
Default : Yes
Forced : No

Audio #2
ID : 3
Format : AC-3
Format/Info : Audio Coding 3
Codec ID : A_AC3
Duration : 1 h 30 min
Bit rate mode : Constant
Bit rate : 384 kb/s
Channel(s) : 6 channels
Channel positions : Front: L C R, Side: L R, LFE
Sampling rate : 48.0 kHz
Frame rate : 31.250 FPS (1536 SPF)
Bit depth : 16 bits
Compression mode : Lossy
Stream size : 247 MiB (3%)
Language : English
Service kind : Complete Main
Default : No
Forced : No

Text
ID : 4
Format : UTF-8
Codec ID : S_TEXT/UTF8
Codec ID/Info : UTF-8 Plain Text
Duration : 1 h 26 min
Bit rate : 58 b/s
Count of elements : 1061
Stream size : 37.3 KiB (0%)
Language : English
Default : No
Forced : No

Menu
00:00:00.000 : en:00:00:00.000
00:08:18.665 : en:00:08:18.665
00:15:29.929 : en:00:15:29.929
00:21:37.713 : en:00:21:37.713
00:25:27.401 : en:00:25:27.401
00:30:32.247 : en:00:30:32.247
00:36:16.049 : en:00:36:16.049
00:46:36.377 : en:00:46:36.377
00:51:27.960 : en:00:51:27.960
00:59:20.974 : en:00:59:20.974
01:08:25.685 : en:01:08:25.685
01:25:42.846 : en:01:25:42.846
Источник http://BlaTor.org

Внимание! AdBlock блокирует показ скриншотов, все вопросы к разработчикам )))
Трекер:  [ 28-Июн-2018 13:00 ]

  

Скачать .torrent

Размер .torrent файла 18 KB


Размер: 7.27 GB
Хэш (hash) релиза: b9c9b407ba9a5129353ba847d661688f49e3bb2a
Подписка на обновления:

Еще никто не оставлял запись к записи скачать торрент iБой iBoy . Будь первым!

!Обратная связь