Скачать через торрент Если дать мышонку печенье If You Give a Mouse a Cookie Фильм бесплатно в хорошем качестве torrent

Скачивайте на UnionPeer.org фильмы через торрент без регистрации. Новинки кино в хорошем качестве через торрент. На UnionPeer.org можно скачать через торрент фильмы 2014 и 2015 годов. Самые новые фильмы.

Скачать торрент Если дать мышонку печенье If You Give a Mouse a Cookie бесплатно через .torrent фильм мультфильм сериал

Статистика раздачи
Размер:  11.86 GB   |    Зарегистрирован:  3 месяца 18 дней   |    .torrent скачан:  28 раз   |   
Раздают:  1  
   
загрузка...
 
Автор Сообщение

Galfimbul

avatar Galfimbul


Если дать мышонку печенье / If You Give a Mouse a Cookie

Страна: США
Жанр: Мультсериал, детский, комедия, семейный, познавательный
Продолжительность серии: 13 x ~ 00:22:00
Год выпуска: 2017
Перевод: Профессиональный (дублированный)

Режиссёр: Ави Арад
Роли озвучивали: Мэйсон Махай, Роджер Крэйг Смит, Джессика ДиЧикко, Джон Ди Маджио, Скарлет Эстевез, Паула Хамершмидт, Кайла Кенеди, Тобиаш Ольберт, Бенжи Рисли

Описание: В мультсериале «Если дать мышонку печенье», основанной на любимых книгах Лауры Нумерофф и Фелисии Бонд, мы узнаем «Мышь», «Свинья», «Лось», «Собака и кошка» и их друзья. Когда мышь и друзья собираются вместе, одна вещь всегда приводит к другому самым неожиданным образом. Вы просто не знаете, где все закончится, но вы можете быть уверены, что Мышь с друзьями вместе отправятся в совместное путешествие, полное приключений и новых открытий.



Качество: WEB-DL 1080p
Формат: MKV
Видео: MPEG-4 AVC, 1920x1080 [16:9], 23.976 fps, ~ 4200 Kbps
Аудио 1: [Русский] EAC3, 48 kHz, 6 ch, 384 Kbps
Аудио 2: [Английский] EAC3, 48 kHz, 6 ch, 384 Kbps
Субтитры: Русские (Full), английские (SDH)
Релиз CasStudio - BenderBEST
ОбщееУникальный идентификатор : 176156575719100290421437708116181466060 (0x848685BC84B92E0798E9CAEF21013BCC)Полное имя : S:\Новая папка\If.You.Give.a.Mouse.a.Cookie.S01.1080p.AMZN.WEB-DL.Rus.Eng_CasStudio\If.You.Give.a.Mouse.a.Cookie.S01E01.Applesauce.Cat.and.Mouse.1080p.AMZN.WEB-DL.Rus.Eng_CasStudio.mkvФормат : MatroskaВерсия формата : Version 4 / Version 2Размер файла : 911 МбайтПродолжительность : 22 м.Режим общего битрейта : ПеременныйОбщий поток : 5592 Кбит/секДата кодирования : UTC 2018-06-26 10:48:44Программа кодирования : mkvmerge v6.9.1 ('Blue Panther') 32bit built on Apr 18 2014 18:15:44Библиотека кодирования : libebml v1.3.0 + libmatroska v1.4.1

ВидеоИдентификатор : 1Формат : AVCФормат/Информация : Advanced Video CodecПрофиль формата : High@L4Параметр CABAC формата : ДаПараметр ReFrames формата : 4 кадраИдентификатор кодека : V_MPEG4/ISO/AVCПродолжительность : 22 м.Вид битрейта : ПеременныйБитрейт : 4200 Кбит/секМаксимальный битрейт : 15,0 Мбит/секШирина : 1920 пикселейВысота : 1080 пикселейСоотношение сторон : 16:9Режим частоты кадров : ПостоянныйЧастота кадров : 23,976 (24000/1001) кадра/секЦветовое пространство : YUVСубдискретизация насыщенности : 4:2:0Битовая глубина : 8 битТип развёртки : ПрогрессивнаяБит/(Пиксели*Кадры) : 0.084Размер потока : 684 Мбайт (75%)Язык : EnglishDefault : ДаForced : ДаЦветовой диапазон : LimitedОсновные цвета : BT.709Характеристики трансфера : BT.709Коэффициенты матрицы : BT.709

Аудио #1Идентификатор : 2Формат : E-AC-3Формат/Информация : Audio Coding 3Параметр Endianness формата : BigИдентификатор кодека : A_EAC3Продолжительность : 22 м.Вид битрейта : ПостоянныйБитрейт : 640 Кбит/секКаналы : 6 каналовРасположение каналов : Front: L C R, Side: L R, LFEЧастота : 48,0 КГцЧастота кадров : 187,500 кадров/сек (256 spf)Метод сжатия : С потерямиРазмер потока : 104 Мбайт (11%)Язык : RussianDefault : ДаForced : Да

Аудио #2Идентификатор : 3Формат : E-AC-3Формат/Информация : Audio Coding 3Параметр Endianness формата : BigИдентификатор кодека : A_EAC3Продолжительность : 22 м.Вид битрейта : ПостоянныйБитрейт : 640 Кбит/секКаналы : 6 каналовРасположение каналов : Front: L C R, Side: L R, LFEЧастота : 48,0 КГцЧастота кадров : 187,500 кадров/сек (256 spf)Метод сжатия : С потерямиРазмер потока : 104 Мбайт (11%)Язык : EnglishDefault : НетForced : Нет

Текст #1Идентификатор : 4Формат : UTF-8Идентификатор кодека : S_TEXT/UTF8Идентификатор кодека/Информация : UTF-8 Plain TextЯзык : RussianDefault : НетForced : Нет

Текст #2Идентификатор : 5Формат : UTF-8Идентификатор кодека : S_TEXT/UTF8Идентификатор кодека/Информация : UTF-8 Plain TextЗаголовок : SDHЯзык : EnglishDefault : НетForced : Нет

Текст #3Идентификатор : 6Формат : UTF-8Идентификатор кодека : S_TEXT/UTF8Идентификатор кодека/Информация : UTF-8 Plain TextЯзык : ArabicDefault : НетForced : Нет

Текст #4Идентификатор : 7Формат : UTF-8Идентификатор кодека : S_TEXT/UTF8Идентификатор кодека/Информация : UTF-8 Plain TextЯзык : ChineseDefault : НетForced : Нет

Текст #5Идентификатор : 8Формат : UTF-8Идентификатор кодека : S_TEXT/UTF8Идентификатор кодека/Информация : UTF-8 Plain TextЯзык : ChineseDefault : НетForced : Нет

Текст #6Идентификатор : 9Формат : UTF-8Идентификатор кодека : S_TEXT/UTF8Идентификатор кодека/Информация : UTF-8 Plain TextЯзык : GermanDefault : НетForced : Нет

Текст #7Идентификатор : 10Формат : UTF-8Идентификатор кодека : S_TEXT/UTF8Идентификатор кодека/Информация : UTF-8 Plain TextЯзык : SpanishDefault : НетForced : Нет

Текст #8Идентификатор : 11Формат : UTF-8Идентификатор кодека : S_TEXT/UTF8Идентификатор кодека/Информация : UTF-8 Plain TextЯзык : SpanishDefault : НетForced : Нет

Текст #9Идентификатор : 12Формат : UTF-8Идентификатор кодека : S_TEXT/UTF8Идентификатор кодека/Информация : UTF-8 Plain TextЯзык : FrenchDefault : НетForced : Нет

Текст #10Идентификатор : 13Формат : UTF-8Идентификатор кодека : S_TEXT/UTF8Идентификатор кодека/Информация : UTF-8 Plain TextЯзык : HindiDefault : НетForced : Нет

Текст #11Идентификатор : 14Формат : UTF-8Идентификатор кодека : S_TEXT/UTF8Идентификатор кодека/Информация : UTF-8 Plain TextЯзык : IndonesianDefault : НетForced : Нет

Текст #12Идентификатор : 15Формат : UTF-8Идентификатор кодека : S_TEXT/UTF8Идентификатор кодека/Информация : UTF-8 Plain TextЯзык : ItalianDefault : НетForced : Нет

Текст #13Идентификатор : 16Формат : UTF-8Идентификатор кодека : S_TEXT/UTF8Идентификатор кодека/Информация : UTF-8 Plain TextЯзык : KoreanDefault : НетForced : Нет

Текст #14Идентификатор : 17Формат : UTF-8Идентификатор кодека : S_TEXT/UTF8Идентификатор кодека/Информация : UTF-8 Plain TextЯзык : DutchDefault : НетForced : Нет

Текст #15Идентификатор : 18Формат : UTF-8Идентификатор кодека : S_TEXT/UTF8Идентификатор кодека/Информация : UTF-8 Plain TextЯзык : PolishDefault : НетForced : Нет

Текст #16Идентификатор : 19Формат : UTF-8Идентификатор кодека : S_TEXT/UTF8Идентификатор кодека/Информация : UTF-8 Plain TextЯзык : PortugueseDefault : НетForced : Нет

Текст #17Идентификатор : 20Формат : UTF-8Идентификатор кодека : S_TEXT/UTF8Идентификатор кодека/Информация : UTF-8 Plain TextЯзык : TurkishDefault : НетForced : Нет

Меню00:00:00.000 : en:Amazon Studios00:00:05.000 : en:Title Sequence00:00:32.000 : en:Applesauce00:00:35.000 : en:Oliver and Mouse head to the store to get applesauce00:04:53.000 : en:Oliver and Mouse return from the store00:11:10.000 : en:Cat and Mouse00:11:13.000 : en:Pig and Mouse go into town to look for Cat00:15:30.000 : en:Pig and Mouse recruit some friends to find Cat00:22:16.000 : en:End Credits


Трекер:  [ 28-Июн-2018 19:24 ]

  

Скачать .torrent

Размер .torrent файла 61 KB


Размер: 11.86 GB
Хэш (hash) релиза: f98a4d074938c104be4f9a80ccaf6e3bbf9d48a1
Подписка на обновления:

Еще никто не оставлял запись к записи скачать торрент Если дать мышонку печенье If You Give a Mouse a Cookie . Будь первым!

!Обратная связь