Скачать через торрент Человек-Паук 198 Spider-Man 1981 Фильм бесплатно в хорошем качестве torrent

Скачивайте на UnionPeer.org фильмы через торрент без регистрации. Новинки кино в хорошем качестве через торрент. На UnionPeer.org можно скачать через торрент фильмы 2014 и 2015 годов. Самые новые фильмы.

Скачать торрент Человек-Паук 198 Spider-Man 1981 бесплатно через .torrent фильм мультфильм сериал

Статистика раздачи
Размер:  26.43 GB   |    Зарегистрирован:  3 месяца 14 дней   |    .torrent скачан:  24 раза   |   
Раздают:  1  
   
загрузка...
 
Автор Сообщение

Galfimbul

avatar Galfimbul



Человек-Паук 1981/ Spider-Man 1981/ Человек-Паук 5000
The Complete Series

Год выпуска: 12 сентября 1981 – 30 марта 1982
Страна: США
Жанр: Экшен, приключения
Продолжительность: 22 мин.
Режиссёр: Режиссёр: Дон Юрвич / Don Jurwich
Роли озвучивали: Тед Шварц, Уильям Вудсон, Линда Гэри, Мона Маршалл, Ральф ДжеймсОписание:
Питер Паркер, став в один прекрасный день супер-героем в результате мутации, начавшейся из-за укуса радиоактивного паука, облучённого в процессе эксперимента, проводимого в научной школе, снова борется за справедливость со своими давними врагами, такими, как доктор Октопус или Зелёный Гоблин… Но у него появляются и новые соперники.. Например — доктор Дум, Хамелеон…

Доп. информация: все 26 эпизодов были выпущены на DVD в Великобритании Clear Vision, на 4 DVD. Чтобы избежать путаницы с другими названиями Spider-Man DVD, Clear Vision выпустила шоу на DVD под названием Spider-Man 5000.
Аудиодорожка 01: MP3 | 48khz | 2ch | 192kb/s |Профессиональный (полное дублирование): Серии 1-3, 7-8, 11-13, 17, 19, 23, 26
Аудиодорожка 02: AC3 | 48khz | 2ch | 192kb/s |Профессиональный (многоголосый, закадровый): Cерии 4-6, 9-10, 14-16, 18, 20-22, 24-25
Аудиодорожка 04: AC3 | 48khz | 2ch | 192kb/s |Оригинал (English): Cерии 1-26
Аудиодорожка 04: AC3 | 48khz | 2ch | 192kb/s |Немецкий (отдельным файлом): Cерии 14-17, 19-26
Субтитры : Idx-Sub | Немецкие, голландские, финские, датские, шведские, норвежские | Серии 1-13, 18
Субтитры : Idx-Sub | Голландские, финские, датские, шведские, норвежские | Серии 14-17, 19-26

Качество: DVD-Remux
Формат: MKV
Видео кодек: MPEG2
Аудио кодек: MP3 / AC3
Видео: MPEG-2 Video | PAL | 4:3 | 720x576 | 25.000 fps | ~5706/9000 Kbps/
01. Bubble, Bubble, Oil And Trouble
02. Doctor Doom, Master Of The World
03. Lizards, Lizards Everywhere
04. Curiosity Killed The Spider-Man
05. The Sandman Is Coming
06. When Magneto Speaks... People Listen
07. The Pied Piper Of New York Town
08. The Doctor Prescribes Doom
09. Carnival Of Crime
10. Revenge Of The Green Goblin
11. Triangle Of Evil
12. The A-B-C's Of D-O-O-M
13. The Sidewinder Strikes!
14. The Hunter And The Hunted
15. The Incredible Shrinking Spider-Man
16. The Linfathomable Professor Gizmo
17. Canon Of Doom
18. The Capture Of Captain America
19. The Doom Report
20. The Web Of Nephilia
21. Countdown To Doom
22. Arsenic And Aunt May
23. The Vulture Has Landed
24. Wrath Of The Sub-Marner
25. The Return Of Kingpin
26. Under The Wizard's Spell
<div class="sp-wrap">
<div class="sp-head folded">Media info</div>
<div class="sp-body">

ОбщееУникальный идентификатор : 203022062302031501253411940981385451383 (0x98BCA07D8F055D780465D1D4A3DBD777)Полное имя : D:\Ремуксы\[AORE] Spider-Man (1981)\01. Bubble, Bubble, Oil And Trouble.mkvФормат : MatroskaВерсия формата : Version 4 / Version 2Размер файла : 954 МбайтПродолжительность : 21 м. 50 с.Режим общего битрейта : ПеременныйОбщий поток : 6110 Кбит/секДата кодирования : UTC 2018-06-27 20:36:42Программа кодирования : mkvmerge v23.0.0 ('The Bride Said No') 64-bitБиблиотека кодирования : libebml v1.3.6 + libmatroska v1.4.9

ВидеоИдентификатор : 1Формат : MPEG VideoВерсия формата : Version 2Профиль формата : Main@MainНастройки формата : CustomMatrix / BVOPПараметр BVOP формата : ДаПараметр матрицы формата : ВыборочнаяПараметр GOP формата : VariableСтруктура изображения : FrameИдентификатор кодека : V_MPEG2Идентификатор кодека/Информация : MPEG 1 or 2 VideoПродолжительность : 21 м. 50 с.Вид битрейта : ПеременныйБитрейт : 5706 Кбит/секМаксимальный битрейт : 9000 Кбит/секШирина : 720 пикселейВысота : 576 пикселейСоотношение сторон : 4:3Режим частоты кадров : ПостоянныйЧастота кадров : 25,000 кадров/секСтандарт вещания : PALЦветовое пространство : YUVСубдискретизация насыщенности : 4:2:0Битовая глубина : 8 битТип развёртки : ЧересстрочнаяПорядок развёртки : Верхнее поле первоеМетод сжатия : С потерямиБит/(Пиксели*Кадры) : 0.550Временной код первого кадра : 09:59:58:20Оригинал временного кода : Group of pictures headerGOP, открыто/закрыто : ОткрытоGOP, открыто/закрыто на первом кадре : ЗакрытоРазмер потока : 891 Мбайт (93%)Язык : EnglishDefault : НетForced : Нет

Аудио #1Идентификатор : 2Формат : MPEG AudioВерсия формата : Version 1Профиль формата : Layer 3Настройки формата : Joint stereo / MS StereoИдентификатор кодека : A_MPEG/L3Идентификатор кодека/Подсказка : MP3Продолжительность : 21 м. 49 с.Вид битрейта : ПостоянныйБитрейт : 192 Кбит/секКаналы : 2 каналаЧастота : 48,0 КГцЧастота кадров : 41,667 кадра/сек (1152 SPF)Метод сжатия : С потерямиРазмер потока : 30,0 Мбайт (3%)Язык : RussianDefault : ДаForced : Нет

Аудио #2Идентификатор : 3Формат : AC-3Формат/Информация : Audio Coding 3Идентификатор кодека : A_AC3Продолжительность : 21 м. 49 с.Вид битрейта : ПостоянныйБитрейт : 192 Кбит/секКаналы : 2 каналаРасположение каналов : Front: L RЧастота : 48,0 КГцЧастота кадров : 31,250 кадров/сек (1536 SPF)Битовая глубина : 16 битМетод сжатия : С потерямиРазмер потока : 30,0 Мбайт (3%)Заголовок : StereoЯзык : EnglishServiceKind/String : Complete MainDefault : НетForced : Нет

Текст #1Идентификатор : 4Формат : VobSubРежим смешивания : zlibИдентификатор кодека : S_VOBSUBИдентификатор кодека/Информация : Picture based subtitle format used on DVDsПродолжительность : 20 м. 21 с.Битрейт : 7224 бит/секElementCount : 270Размер потока : 1,05 Мбайт (0%)Язык : GermanDefault : ДаForced : Нет

Текст #2Идентификатор : 5Формат : VobSubРежим смешивания : zlibИдентификатор кодека : S_VOBSUBИдентификатор кодека/Информация : Picture based subtitle format used on DVDsПродолжительность : 20 м. 21 с.Битрейт : 5719 бит/секElementCount : 215Размер потока : 853 Кбайт (0%)Язык : DutchDefault : НетForced : Нет

Текст #3Идентификатор : 6Формат : VobSubРежим смешивания : zlibИдентификатор кодека : S_VOBSUBИдентификатор кодека/Информация : Picture based subtitle format used on DVDsПродолжительность : 21 м. 13 с.Битрейт : 6576 бит/секElementCount : 271Размер потока : 1022 Кбайт (0%)Язык : FinnishDefault : НетForced : Нет

Текст #4Идентификатор : 7Формат : VobSubРежим смешивания : zlibИдентификатор кодека : S_VOBSUBИдентификатор кодека/Информация : Picture based subtitle format used on DVDsПродолжительность : 20 м. 21 с.Битрейт : 6633 бит/секElementCount : 268Размер потока : 989 Кбайт (0%)Язык : DanishDefault : НетForced : Нет

Текст #5Идентификатор : 8Формат : VobSubРежим смешивания : zlibИдентификатор кодека : S_VOBSUBИдентификатор кодека/Информация : Picture based subtitle format used on DVDsПродолжительность : 21 м. 13 с.Битрейт : 5245 бит/секElementCount : 192Размер потока : 815 Кбайт (0%)Язык : SwedishDefault : НетForced : Нет

Текст #6Идентификатор : 9Формат : VobSubРежим смешивания : zlibИдентификатор кодека : S_VOBSUBИдентификатор кодека/Информация : Picture based subtitle format used on DVDsПродолжительность : 20 м. 21 с.Битрейт : 6571 бит/секElementCount : 270Размер потока : 980 Кбайт (0%)Язык : NorwegianDefault : НетForced : Нет
</div>
</div>
Информация о проекте:

Были использованы 4 DVD от Clear Vision. Ничего не пережималось и не кодировалось. В некоторых сериях скачет цвет. Таков исходник.
DVD-рипМои ремуксы




Трекер:  [ 02-Июл-2018 12:24 ]

  

Скачать .torrent

Размер .torrent файла 135 KB


Размер: 26.43 GB
Хэш (hash) релиза: e75a6ff4fc4ecb31caa1ce494fa539abd314012f
Подписка на обновления:

Еще никто не оставлял запись к записи скачать торрент Человек-Паук 198 Spider-Man 1981 . Будь первым!

!Обратная связь