Скачать через торрент Мыслить как преступник Criminal Minds Фильм бесплатно в хорошем качестве torrent

Скачивайте на UnionPeer.org фильмы через торрент без регистрации. Новинки кино в хорошем качестве через торрент. На UnionPeer.org можно скачать через торрент фильмы 2014 и 2015 годов. Самые новые фильмы.

Скачать торрент Мыслить как преступник Criminal Minds бесплатно через .torrent фильм мультфильм сериал

Статистика раздачи
Размер:  30.14 GB   |    Зарегистрирован:  5 лет 7 месяцев   |    .torrent скачан:  74 раза   |   
Раздают:  1  
   
 
Автор Сообщение

Galfimbul

avatar Galfimbul


Мыслить как преступник / Criminal Minds
Год выпуска: 2017
Страна: США, Канада
Жанр: Детектив, криминал, драма
Продолжительность: 00:43:19
Перевод: Профессиональный (многоголосый закадровый) - Fox
Режиссёр: Джефф Дэвис
В ролях: Джо Мантенья, Мэттью Грэй Габлер, Эй Джей Кук, Кирстен Вангснесс, Аиша Тайлер, Адам Родригез, Томас Гибсон
Описание: Главные герои сериала - команда лучших следователей ФБР, способных понять и проанализировать ход мыслей самых изощрённых преступников, предугадать их дальнейшие поступки и тем самым предотвратить ужасные преступления. Когда обычные криминалисты заходят в тупик, на помощь им приходят специалисты по поведенческому анализу. Вместо тщательного изучения улик они пытаются найти и понять мотивы преступления, досконально вникая в каждый шаг преступника и пытаясь мыслить, как он. Работая на месте преступления, эти профессионалы словно расследуют его изнутри, стараясь понять мысли преступника, какими бы тёмными они ни были.

Сэмпл: http://multi-up.com/1202883

Качество: WEBRip 1080p
Контейнер: MKV
Видео: MPEG-4 AVC, 1920x1080 (16:9), 23.976 fps, 4500 Kbps, 0.086 bits/pixel
Аудио 1: 48 KHz, AC3 Dolby Digital, 2 ch, 192 Kbps [Rus]
Аудио 2: 48 KHz, AC3 Dolby Digital, 2 ch, 192 Kbps [Eng]
Субтитры: отсутствуют
Реклама: Отсутствует
General

Complete name : Downloads\Criminal Minds S13 1080p\Criminal.Minds.S13E01.Wheels.Up.1080p.WEB-DL.mkv
Format : Matroska
Format version : Version 4 / Version 2
File size : 1.43 GiB
Duration : 43mn 19s
Overall bit rate : 4 738 Kbps
Writing application : mkvmerge v9.3.1 ('Mask Machine') 64bit
Writing library : libebml v1.3.4 + libmatroska v1.4.5
DURATION : 00:43:19.168000000
NUMBER_OF_FRAMES : 81224
NUMBER_OF_BYTES : 62380032
_STATISTICS_WRITING_APP : mkvmerge v9.3.1 ('Mask Machine') 64bit
_STATISTICS_WRITING_DATE_UTC : 2017-11-19 16:29:41
_STATISTICS_TAGS : BPS DURATION NUMBER_OF_FRAMES NUMBER_OF_BYTES
Video #1
ID : 1
Format : AVC
Format/Info : Advanced Video Codec
Format profile : [email protected]
Format settings, CABAC : Yes
Format settings, ReFrames : 4 frames
Codec ID : V_MPEG4/ISO/AVC
Duration : 43mn 19s
Bit rate : 4 260 Kbps
Nominal bit rate : 4 500 Kbps
Width : 1 920 pixels
Height : 1 080 pixels
Display aspect ratio : 16:9
Frame rate mode : Constant
Frame rate : 23.976 fps
Color space : YUV
Chroma subsampling : 4:2:0
Bit depth : 8 bits
Scan type : Progressive
Bits/(Pixel*Frame) : 0.086
Stream size : 1.29 GiB (90%)
Writing library : x264 core 148
Encoding settings : cabac=1 / ref=3 / deblock=1:0:0 / analyse=0x3:0x113 / me=hex / subme=7 / psy=1 / psy_rd=1.00:0.00 / mixed_ref=1 / me_range=16 / chroma_me=1 / trellis=1 / 8x8dct=1 / cqm=0 / deadzone=21,11 / fast_pskip=1 / chroma_qp_offset=-2 / threads=34 / lookahead_threads=5 / sliced_threads=0 / nr=0 / decimate=1 / interlaced=0 / bluray_compat=0 / constrained_intra=0 / bframes=3 / b_pyramid=2 / b_adapt=1 / b_bias=0 / direct=1 / weightb=1 / open_gop=0 / weightp=2 / keyint=250 / keyint_min=23 / scenecut=40 / intra_refresh=0 / rc_lookahead=40 / rc=abr / mbtree=1 / bitrate=4500 / ratetol=1.0 / qcomp=0.60 / qpmin=0 / qpmax=69 / qpstep=4 / vbv_maxrate=5400 / vbv_bufsize=4500 / nal_hrd=none / filler=0 / ip_ratio=1.40 / aq=1:1.00
Default : Yes
Forced : No
Audio #2
ID : 2
Format : AC-3
Format/Info : Audio Coding 3
Mode extension : CM (complete main)
Format settings, Endianness : Big
Codec ID : A_AC3
Duration : 43mn 19s
Bit rate mode : Constant
Bit rate : 192 Kbps
Channel(s) : 2 channels
Channel positions : Front: L R
Sampling rate : 48.0 KHz
Bit depth : 16 bits
Compression mode : Lossy
Stream size : 59.5 MiB (4%)
Language : Russian
Default : Yes
Forced : Yes
Audio #3
ID : 3
Format : AC-3
Format/Info : Audio Coding 3
Mode extension : CM (complete main)
Format settings, Endianness : Big
Codec ID : A_AC3
Duration : 43mn 19s
Bit rate mode : Constant
Bit rate : 192 Kbps
Channel(s) : 2 channels
Channel positions : Front: L R
Sampling rate : 48.0 KHz
Bit depth : 16 bits
Compression mode : Lossy
Stream size : 59.5 MiB (4%)
Language : English
Default : No
Forced : No
Предыдущие и альтернативные раздачи

Внимание! AdBlock блокирует показ скриншотов, все вопросы к разработчикам )))
Трекер:  [ 02-Июл-2018 17:18 ]

  

Скачать .torrent

Размер .torrent файла 154 KB


Размер: 30.14 GB
Хэш (hash) релиза: 90dc76f90fd16bb15ebacc081a9099d6e3784e96
Подписка на обновления:

Еще никто не оставлял запись к записи скачать торрент Мыслить как преступник Criminal Minds . Будь первым!

!Обратная связь