Скачать через торрент Комик в городе. Самара Фильм бесплатно в хорошем качестве torrent

Скачивайте на UnionPeer.org фильмы через торрент без регистрации. Новинки кино в хорошем качестве через торрент. На UnionPeer.org можно скачать через торрент фильмы 2014 и 2015 годов. Самые новые фильмы.

Скачать торрент Комик в городе. Самара бесплатно через .torrent фильм мультфильм сериал

Статистика раздачи
Размер:  715 MB   |    Зарегистрирован:  4 месяца 13 дней   |    .torrent скачан:  36 раз   |   
Раздают:  1  
   
загрузка...
 
Автор Сообщение

Galfimbul

avatar Galfimbul


Комик в городе. Самара (выпуск 2-й от 04-03-2018)

Дата/Год выпуска: 2018
Страна: Россия
Жанр: Юмор
Продолжительность: 00:23:17
Перевод: Не требуется
Режиссер: Роман Новиков
Телеканал: ТНТ HD
В ролях: Руслан Белый

Описание: Пролетев полтора часа на самолете и два часа проехав на такси, Руслан Белый прибыл в Самару. Комик в городе, 1 сезон, 2 серия прочитал самарцам лекцию о красоте природы и убожестве Тольятти, акустической Ибице и хип-хопе. Как отреагировали местные – смотрите в новом выпуске.

качество: HDTV 1080i
формат: MKV
Видео: 1920x1080 (16:9), 25.000 fps, AVC ~4 500 kbps avg
Аудио: AC3, 192 kbps, 48 kHz, 2 ch
GeneralUnique ID : 189406496616345509936244292990365131578 (0x8E7E5D460217A47D9E6CEFCA1294E33A)Complete name : D:\Humor\Stand Up\Komik v gorode.Vypusk 02.Samara.mkvFormat : MatroskaFormat version : Version 2File size : 715 MiBDuration : 23mn 17sOverall bit rate mode : VariableOverall bit rate : 4 294 KbpsEncoded date : UTC 2018-07-02 18:15:48Writing application : mkvmerge v6.1.0 ('Old Devil') built on Mar 4 2013 09:10:42Writing library : libebml v1.3.0 + libmatroska v1.4.0

VideoID : 1Format : AVCFormat/Info : Advanced Video CodecFormat profile : High@L4.0Format settings, CABAC : YesFormat settings, ReFrames : 4 framesCodec ID : V_MPEG4/ISO/AVCDuration : 23mn 17sBit rate mode : VariableBit rate : 4 017 KbpsMaximum bit rate : 4 500 KbpsWidth : 1 920 pixelsHeight : 1 080 pixelsDisplay aspect ratio : 16:9Frame rate mode : ConstantFrame rate : 25.000 fpsColor space : YUVChroma subsampling : 4:2:0Bit depth : 8 bitsScan type : ProgressiveBits/(Pixel*Frame) : 0.077Stream size : 669 MiB (94%)Default : YesForced : No

AudioID : 2Format : AC-3Format/Info : Audio Coding 3Mode extension : CM (complete main)Format settings, Endianness : BigCodec ID : A_AC3Duration : 23mn 17sBit rate mode : ConstantBit rate : 192 KbpsChannel count : 2 channelsChannel positions : Front: L RSampling rate : 48.0 KHzBit depth : 16 bitsCompression mode : LossyStream size : 32.0 MiB (4%)Default : YesForced : No


Трекер:  [ 02-Июл-2018 21:42 ]

  

Скачать .torrent

Размер .torrent файла 14 KB


Размер: 715 MB
Хэш (hash) релиза: 5362f58765722bfcbc668d0e425aec43927e1b6a
Подписка на обновления:

Еще никто не оставлял запись к записи скачать торрент Комик в городе. Самара . Будь первым!

!Обратная связь