Скачать через торрент Вакфу Wakfu Фильм бесплатно в хорошем качестве torrent

Скачивайте на UnionPeer.org фильмы через торрент без регистрации. Новинки кино в хорошем качестве через торрент. На UnionPeer.org можно скачать через торрент фильмы 2014 и 2015 годов. Самые новые фильмы.

Скачать торрент Вакфу Wakfu бесплатно через .torrent фильм мультфильм сериал

Статистика раздачи
Размер:  7.72 GB   |    Зарегистрирован:  5 месяцев 9 дней   |    .torrent скачан:  42 раза   |   
Раздают:  1  
   
загрузка...
 
Автор Сообщение

Galfimbul

avatar Galfimbul



Вакфу / Wakfu
The Complete Third Season
Год выпуска: 2017
Страна: Франция.
Жанр: Комедия, приключение, фэнтези.
Продолжительность: ТВ (13 эп.), ~ 23 минуты
Перевод: Любительский (Одноголосный, закадровый) ALEKS KV
Субтитры: Есть

Режиссёр: Фабрис Нзинзи / Fabrice Nzinzi

Описание: Брат Юго, Адамай, крепко-накрепко обиделся на Братство Тофу из-за того, что те посмели рисковать целым миром и применили дофусы элиатропов против Огреста. Неизвестно, куда Адамай пропал, и Юго никак не может его найти. Но неожиданно он объявляется сам — чтобы расправиться со старыми друзьями. В этот раз ставки высоки — Братству Тофу противостоит Братство Забытых. Впрочем, лидер Братства Забытых, Оропо, согласен отпустить героев с миром, если они пройдут через Башню Грез от подножия до вершины.
Релиз от:
Над релизом работали:
Выражаю огромнейшую благодарность следующим лицам:
SergeZuich - Предоставил WEBRip'ы.
7ion - Создание субтитров
Jakill - Ранняя работа над мультсериалом
ALEKS KV - Озвучка, сведение, итоговый муксинг

Сэмпл
Доп. Информация:
За основу видео взяты французский WEBRip'ы с Netflix, как самые лучшие по качеству видео и звука!
[b]Качество
: WEBRip 1080p (Netflix)
Видео: x264 8bit 1920x1080 25.000fps ~4900Kbps
Аудио:

русская: Dolby AC3 48000Hz -----|Stereo|----- 192Kbps [ALEKS KV] (Серии 01-13)
французская: E-AC3 48000Hz ----|Stereo|---- 128Kbps [Оригинал] (Серии 01-13)

Субтитры:

русские: plus4chan (Серии 01-13)
английские: plus4chan (Серии 01-13)
французские: Netflix (Серии 01-13)
01. Гром среди ясного неба
02. Какой отец, такая дочь
03. Башня Оропо
04. Не лыком шита
05. Иопы плачут тайком
06. Экафлипская когтеточка
07. Не трусь
08. Арпагонна
09. Храм садида
10. Когда рушатся стены
11. Оропо
12. Гиперзаап
13. Инглориум
GeneralUnique ID : 203750798129932065408018100297818129442 (0x9948F9F0D6257DD49F78C4AED7C74422)Complete name : XXXXX\[M-KV2501] Wakfu 3x01 [WEBRip Netflix] [1080p].mkvFormat : MatroskaFormat version : Version 4 / Version 2File size : 731 MiBDuration : 23 min 42 sOverall bit rate mode : VariableOverall bit rate : 4 314 kb/sEncoded date : UTC 2018-07-03 15:09:00Writing application : mkvmerge v8.3.0 ('Over the Horizon') 64bitWriting library : libebml v1.3.1 + libmatroska v1.4.2

VideoID : 1Format : AVCFormat/Info : Advanced Video CodecFormat profile : Main@L4Format settings : CABAC / 3 Ref FramesFormat settings, CABAC : YesFormat settings, ReFrames : 3 framesCodec ID : V_MPEG4/ISO/AVCDuration : 23 min 42 sBit rate mode : VariableBit rate : 4 020 kb/sMaximum bit rate : 6 030 kb/sWidth : 1 920 pixelsHeight : 1 080 pixelsDisplay aspect ratio : 16:9Frame rate mode : ConstantFrame rate : 25.000 FPSColor space : YUVChroma subsampling : 4:2:0Bit depth : 8 bitsScan type : ProgressiveBits/(Pixel*Frame) : 0.078Stream size : 677 MiB (93%)Title : OriginalWriting library : x264 core 118Encoding settings : cabac=1 / ref=3 / deblock=1:0:0 / analyse=0x1:0x111 / me=umh / subme=10 / psy=1 / psy_rd=1.00:0.00 / mixed_ref=1 / me_range=24 / chroma_me=1 / trellis=2 / 8x8dct=0 / cqm=0 / deadzone=21,11 / fast_pskip=1 / chroma_qp_offset=-2 / threads=8 / sliced_threads=0 / nr=0 / decimate=1 / interlaced=0 / bluray_compat=0 / constrained_intra=0 / bframes=2 / b_pyramid=0 / b_adapt=2 / b_bias=0 / direct=3 / weightb=1 / open_gop=0 / weightp=2 / keyint=50 / keyint_min=26 / scenecut=0 / intra_refresh=0 / rc_lookahead=0 / rc=2pass / mbtree=1 / bitrate=4020 / ratetol=1.0 / qcomp=0.50 / qpmin=6 / qpmax=51 / qpstep=4 / cplxblur=20.0 / qblur=0.5 / vbv_maxrate=6030 / vbv_bufsize=8040 / nal_hrd=vbr / ip_ratio=1.40 / aq=1:1.00Language : FrenchDefault : YesForced : No

Audio #1ID : 2Format : AC-3Format/Info : Audio Coding 3Codec ID : A_AC3Duration : 23 min 42 sBit rate mode : ConstantBit rate : 192 kb/sChannel(s) : 2 channelsChannel positions : Front: L RSampling rate : 48.0 kHzFrame rate : 31.250 FPS (1536 SPF)Bit depth : 16 bitsCompression mode : LossyStream size : 32.5 MiB (4%)Title : ALEKS KVLanguage : RussianService kind : Complete MainDefault : YesForced : No

Audio #2ID : 3Format : E-AC-3Format/Info : Enhanced Audio Coding 3Codec ID : A_EAC3Duration : 23 min 42 sBit rate mode : ConstantBit rate : 128 kb/sChannel(s) : 2 channelsChannel positions : Front: L RSampling rate : 48.0 kHzFrame rate : 187.500 FPS (256 SPF)Compression mode : LossyStream size : 21.7 MiB (3%)Title : OriginalLanguage : FrenchService kind : Complete MainDefault : NoForced : No

Text #1ID : 4Format : ASSCodec ID : S_TEXT/ASSCodec ID/Info : Advanced Sub Station AlphaDuration : 23 min 26 sBit rate : 137 b/sCount of elements : 299Compression mode : LosslessStream size : 23.6 KiB (0%)Title : plus4chanLanguage : RussianDefault : NoForced : No

Text #2ID : 5Format : ASSCodec ID : S_TEXT/ASSCodec ID/Info : Advanced Sub Station AlphaDuration : 22 min 45 sBit rate : 100 b/sCount of elements : 271Compression mode : LosslessStream size : 16.7 KiB (0%)Title : plus4chanLanguage : EnglishDefault : NoForced : No

Text #3ID : 6Format : UTF-8Codec ID : S_TEXT/UTF8Codec ID/Info : UTF-8 Plain TextDuration : 23 min 24 sBit rate : 67 b/sCount of elements : 431Stream size : 11.6 KiB (0%)Title : OriginalLanguage : FrenchDefault : NoForced : No
Внимание, данная раздача содержит эксклюзивный контент от M-KV2501. Использовать контент без баннера группы: и указания первоначального источника - ЗАПРЕЩЕНО!


Трекер:  [ 03-Июл-2018 18:54 ]

  

Скачать .torrent

Размер .torrent файла 40 KB


Размер: 7.72 GB
Хэш (hash) релиза: b3c53b4ef9ec71d0ad80107a364a43d8fb3d63bd
Подписка на обновления:

Еще никто не оставлял запись к записи скачать торрент Вакфу Wakfu . Будь первым!

!Обратная связь