Скачать через торрент Чип и Дейл спешат на помощь Chip and Dale Rescue Rangers Фильм бесплатно в хорошем качестве torrent

Скачивайте на UnionPeer.org фильмы через торрент без регистрации. Новинки кино в хорошем качестве через торрент. На UnionPeer.org можно скачать через торрент фильмы 2014 и 2015 годов. Самые новые фильмы.

Скачать торрент Чип и Дейл спешат на помощь Chip and Dale Rescue Rangers бесплатно через .torrent фильм мультфильм сериал

Статистика раздачи
Размер:  32.41 GB   |    Зарегистрирован:  3 месяца 12 дней   |    .torrent скачан:  43 раза   |   
Раздают:  1  
   
загрузка...
 
Автор Сообщение

Galfimbul

avatar Galfimbul



Чип и Дейл спешат на помощь / Chip and Dale Rescue Rangers
Английское название: Chip and Dale Rescue Rangers
Русское название: Чип и Дейл спешат на помощь
Год выпуска: 1989
Страна: США
Жанр: комедия, приключения
Продолжительность: ТВ (65 эп.), ~ 23 минуты
Перевод: Профессиональный (Полное Дублирование) ТСК ЦТ
Субтитры: Нет
Режиссёр: Джон Кимболл, Роб Замбони / John Kimball, Bob Zamboni

Описание: Добрый диснеевский мультсериал о похождениях команды бескорыстных, весёлых спасателей, всегда готовых выручить из беды каждого, кто в этом нуждается, получил название «Чип и Дейл спешат на помощь». Главные герои мультсериала, два весёлых бурундука, ещё в самой первой серии неожиданно находят друзей и единомышленников, пополнивших их собственную команду спасателей. Это огромная австралийская мышь Рокфор и юная мечтательница, лётчица, красавица - Гайка. Своей главной задачей эта разношёрстная команда считает спасение всех, кто попал в трудное положение.
На пути героев встречается множество препятствий. Причём большинство из них, это дело рук главного злодея. Толстый кот с характерным именем Толстопуз, совершая свои каверзы, тоже действует не в одиночку. Его верные помощники готовы на любые злодейства, чтобы угодить своему страшному господину.
Но друзья не сдаются. Из серии к серии они готовы снова и снова противостоять преступным и губительным замыслам Толстопуза. Ведь если они не смогут остановить бандита, его опасные затеи могут помочь ему захватить весь мир, или даже уничтожить его.



Релиз от:




Над релизом работали:

tmnt30 ....... Предоставил лицензионные кассеты Видеосервиса
ALEKS KV .......Предоставил лицензионные кассеты Видеосервиса, оцифровка, сканы обложек



Доп. Информация:
В релизе представлены оцифровки всех лицензионных кассет выходивших от фирмы "Видеосервис" :
Чип и Дейл спешат на помощь: Большой малыш (Имеет Hi-Fi звук)
Чип и Дейл спешат на помощь: Гроза преступников (Имеет Hi-Fi звук)
Чип и Дейл спешат на помощь: Замок Баскервиллей (Имеет Hi-Fi звук)
Чип и Дейл спешат на помощь: Замок призраков (Имеет Hi-Fi звук)
Чип и Дейл спешат на помощь: Последний эльф (Имеет Hi-Fi звук)
Чип и Дейл спешат на помощь: Пчёлы - дело рискованное (Имеет Hi-Fi звук)
Чип и Дейл спешат на помощь: Редкий вид (Имеет Hi-Fi звук)
Чип и Дейл спешат на помощь: Тайные двойники (Имеет Hi-Fi звук)

Оцифровка производилась с компонентных выходов при помощи тюнера Beholder H8. Главным отличием от всех остальных изданий и телетрансляций является совершенно иной локализованный видео ряд: Сэмпл

Качество: VHSRip
Формат видео: MPEG2
Контейнер: MPG
Аудио кодек: AC3
Видео: MPEG2 Video 720x576 (4:3) 25.000fps 15 000 Kbps
Аудио:

русская: Dolby AC3 48000Hz stereo 384Kbps [ТСК ЦТ] {Hi-Fi}
06. Пропавший котёнок
07. Редкий вид
09. В плену у пиратов
10. Опасный концерт
11. Спасатели для героя
12. Собака Баскервиллей
13. Искатель приключений
14. Пчёлы - дело рискованное
15. Держись, малыш
16. Полёт в космос
17. Двойник Дейла
22. Замок призраков
29. Охота на оборотня
30. Большой малыш
35. Шоколадные чипсы
38. Последний эльф
39. Секретный агент
Чип и Дейл спешат на помощь: Большой малыш
30. Большой малыш
39. Секретный агент


Чип и Дейл спешат на помощь: Гроза преступников
06. Пропавший котёнок
09. В плену у пиратов


Чип и Дейл спешат на помощь: Замок Баскервиллей
12. Собака Баскервиллей
10. Опасный концерт
16. Полёт в космос


Чип и Дейл спешат на помощь: Замок призраков
22. Замок призраков
29. Охота на оборотня


Чип и Дейл спешат на помощь: Последний эльф
38. Последний эльф
35. Шоколадные чипсы


Чип и Дейл спешат на помощь: Пчёлы - дело рискованное
15. Держись, малыш
14. Пчёлы - дело рискованное


Чип и Дейл спешат на помощь: Редкий вид
07. Редкий вид
13. Искатель приключений


Чип и Дейл спешат на помощь: Тайные двойники
17. Двойник Дейла
11. Спасатели для героя
GeneralComplete name : xxxxxxxxxxx\[M-KV2501] Чип и Дейл спешат на помощь [Большой малыш] [DUB ТСК ЦТ] [VHS Видеосервис] {Hi-Fi}.mpgFormat : MPEG-PSFile size : 3.58 GiBDuration : 43 min 35 sOverall bit rate mode : VariableOverall bit rate : 11.7 Mb/s

VideoID : 224 (0xE0)Format : MPEG VideoFormat version : Version 2Format profile : Main@MainFormat settings : CustomMatrix / BVOPFormat settings, BVOP : YesFormat settings, Matrix : CustomFormat settings, GOP : M=3, N=15Format settings, picture st : FrameDuration : 43 min 35 sBit rate mode : VariableBit rate : 11.1 Mb/sMaximum bit rate : 15.0 Mb/sWidth : 720 pixelsHeight : 576 pixelsDisplay aspect ratio : 4:3Frame rate : 25.000 FPSStandard : PALColor space : YUVChroma subsampling : 4:2:0Bit depth : 8 bitsScan type : InterlacedScan order : Top Field FirstCompression mode : LossyBits/(Pixel*Frame) : 1.074Time code of first frame : 00:00:00:01Time code source : Group of pictures headerGOP, Open/Closed : OpenGOP, Open/Closed of first f : ClosedStream size : 3.39 GiB (95%)

AudioID : 189 (0xBD)-128 (0x80)Format : AC-3Format/Info : Audio Coding 3Muxing mode : DVD-VideoDuration : 43 min 35 sBit rate mode : ConstantBit rate : 384 kb/sChannel(s) : 2 channelsChannel positions : Front: L RSampling rate : 48.0 kHzFrame rate : 31.250 FPS (1536 SPF)Bit depth : 16 bitsCompression mode : LossyDelay relative to video : 24 msStream size : 120 MiB (3%)Service kind : Complete Main
Внимание, данная раздача содержит эксклюзивный контент от M-KV2501 и РГ Мультфильмы. Использовать контент без баннера группы: и указания первоначального источника - ЗАПРЕЩЕНО! Уважайте чужой труд!


Трекер:  [ 05-Июл-2018 00:54 ]

  

Скачать .torrent

Размер .torrent файла 164 KB


Размер: 32.41 GB
Хэш (hash) релиза: 1ef3bb23867d87e47711bcc3b32095d654bf35b9
Подписка на обновления:

Еще никто не оставлял запись к записи скачать торрент Чип и Дейл спешат на помощь Chip and Dale Rescue Rangers . Будь первым!

!Обратная связь