Скачать через торрент Привет, Китти Hello Kitty and Friends Фильм бесплатно в хорошем качестве torrent

Скачивайте на UnionPeer.org фильмы через торрент без регистрации. Новинки кино в хорошем качестве через торрент. На UnionPeer.org можно скачать через торрент фильмы 2014 и 2015 годов. Самые новые фильмы.

Скачать торрент Привет, Китти Hello Kitty and Friends бесплатно через .torrent фильм мультфильм сериал

Статистика раздачи
Размер:  15.35 GB   |    Зарегистрирован:  3 месяца 11 дней   |    .torrent скачан:  22 раза   |   
Раздают:  1  
   
загрузка...
 
Автор Сообщение

Galfimbul

avatar Galfimbul



Привет, Китти / Hello Kitty and Friends
Английское название: Hello Kitty and Friends
Русское название: Привет, Китти
Год выпуска: 1991-1995
Страна: Япония
Жанр: приключения, фэнтези
Продолжительность: ТВ (13 эп.), ~ 23 минуты
Перевод: Профессиональный (Полное Дублирование) "Видео-М" по заказу ЕА
Субтитры: Нет
Режиссёр: Ясуо Ишикава / Yasuo Ishikawa

Описание: Добро пожаловать в волшебный мир Китти. Любимая героиня миллионов девочек 4-10 лет очень популярна во всём мире. Теперь и вы можете познакомиться с Китти и присоединиться к её увлекательным приключениям в стране фантазий и сказок.



Релиз от:




Над релизом работали:
SimbaTheLionKing ....... Покупка и пересылка кассеты "Белоснежка"
ALEKS KV .......Покупка кассеты "Волшебное рождество", оцифровка, сканы обложек



Доп. Информация:
В релизе представлены оцифровки всех лицензионных кассет выходивших от фирмы "Екатеринбург Арт" :
Привет, Китти: Белоснежка (Имеет Hi-Fi звук)
Привет, Китти: Волшебное Рождество (Имеет Hi-Fi звук)

Оцифровка производилась с компонентных выходов при помощи тюнера Beholder H8. Сэмпл

Качество: VHSRip
Формат видео: MPEG2
Контейнер: MPG
Аудио кодек: AC3
Видео: MPEG2 Video 720x576 (4:3) 25.000fps 15 000 Kbps
Аудио:

русская: Dolby AC3 48000Hz stereo 384Kbps [Видео-М] {Hi-Fi}
01. Золушка
02. Белоснежка
03. The Circus Comes to Town
04. The Day the Big Clock Stopped
05. Alice in Wonderland
06. Хайди
07. The Dream Thief
08. Чудесные сёстры
09. Спящая красавица
10. The Prince in his Dream Castle
11. Santa's Missing Hat
12. Mom Loves Me After All
13. Волшебное яблоко
Привет, Китти: Белоснежка
02. Белоснежка
06. Хайди
09. Спящая красавица


Привет, Китти: Волшебное Рождество
01. Золушка
08. Чудесные сёстры
13. Волшебное яблоко
GeneralComplete name : XXXXXXXXXXXX\[M-KV2501] Привет, Китти [Волшебное Рождество] [DUB EA] [VHS] {Hi-Fi}.mpgFormat : MPEG-PSFile size : 7.78 GiBDuration : 1 h 20 minOverall bit rate mode : VariableOverall bit rate : 13.9 Mb/s

VideoID : 224 (0xE0)Format : MPEG VideoFormat version : Version 2Format profile : Main@MainFormat settings : CustomMatrix / BVOPFormat settings, BVOP : YesFormat settings, Matrix : CustomFormat settings, GOP : M=3, N=15Format settings, picture st : FrameDuration : 1 h 20 minBit rate mode : VariableBit rate : 13.3 Mb/sMaximum bit rate : 15.0 Mb/sWidth : 720 pixelsHeight : 576 pixelsDisplay aspect ratio : 4:3Frame rate : 25.000 FPSStandard : PALColor space : YUVChroma subsampling : 4:2:0Bit depth : 8 bitsScan type : InterlacedScan order : Top Field FirstCompression mode : LossyBits/(Pixel*Frame) : 1.279Time code of first frame : 00:00:00:01Time code source : Group of pictures headerGOP, Open/Closed : OpenGOP, Open/Closed of first f : ClosedStream size : 7.42 GiB (95%)

AudioID : 189 (0xBD)-128 (0x80)Format : AC-3Format/Info : Audio Coding 3Muxing mode : DVD-VideoDuration : 1 h 20 minBit rate mode : ConstantBit rate : 384 kb/sChannel(s) : 2 channelsChannel positions : Front: L RSampling rate : 48.0 kHzFrame rate : 31.250 FPS (1536 SPF)Bit depth : 16 bitsCompression mode : LossyDelay relative to video : 15 msStream size : 220 MiB (3%)Service kind : Complete Main
Внимание, данная раздача содержит эксклюзивный контент от M-KV2501 и РГ Мультфильмы. Использовать контент без баннера группы: и указания первоначального источника - ЗАПРЕЩЕНО! Уважайте чужой труд!


Трекер:  [ 05-Июл-2018 17:24 ]

  

Скачать .torrent

Размер .torrent файла 77 KB


Размер: 15.35 GB
Хэш (hash) релиза: 0535d4489db9861c16538b7f171775af1e203b81
Подписка на обновления:

Еще никто не оставлял запись к записи скачать торрент Привет, Китти Hello Kitty and Friends . Будь первым!

!Обратная связь