Скачать через торрент Кибер-город Эдо 808 Кибер-город Идо 808 Фильм бесплатно в хорошем качестве torrent

Скачивайте на UnionPeer.org фильмы через торрент без регистрации. Новинки кино в хорошем качестве через торрент. На UnionPeer.org можно скачать через торрент фильмы 2014 и 2015 годов. Самые новые фильмы.

Скачать торрент Кибер-город Эдо 808 Кибер-город Идо 808 бесплатно через .torrent фильм мультфильм сериал

Статистика раздачи
Размер:  4.43 GB   |    Зарегистрирован:  3 месяца 11 дней   |    .torrent скачан:  30 раз   |   
Раздают:  1  
   
загрузка...
 
Автор Сообщение

Galfimbul

avatar Galfimbul



Кибер-город Эдо 808 / Cyber City Oedo 808
Английское название: Cyber City Oedo 808
Русское название: Кибер-город Эдо 808
Год выпуска: 1990
Страна: Япония
Жанр: приключения, фантастика, меха
Продолжительность: OVA (3 эп.), ~ 43 минуты
Перевод: Авторский (одноголосный, закадровый) Сергей Визгунов
Субтитры: Нет
Режиссёр: Кавадзири Ёсиаки / Kawajiri Yoshiaki

Описание: 2808 г. нашей эры. Три рецидивиста получают заманчивое предложение: променять сотни лет тюремного заключения на службу в кибер-полиции. За каждого обезвреженного злодея прожженным киллерам, ворам и хакерам скостят срок на несколько лет, а там и до свободы рукой подать. Безумная охота в джунглях кибернетического мегаполиса – отличное развлечение для тех, кому нечего терять! Но есть одна проблема – в случае неудачи и при малейшем непослушании начальник полиции нажмет кнопку, и на агенте взорвется ошейник, который невозможно снять. Кибер город Эдо задыхается в тисках преступности, и коварный садист-полицейский вовсю наслаждается своей властью, ставя перед тремя спецагентами всё более сложные задачи…



Релиз от:




Над релизом работали:
ALEKS KV .......Покупка кассеты, оцифровка



Доп. Информация:
В релизе представлена оцифровка первой серии аниме "Cyber City Oedo 808", часто гулявшей на дописках к фильмам. Данная версия различается локализацией видео ряда, а так же абсолютно другим саундтреком, в отличии от версии выходивших на DVD в США и Японии. Оцифровка производилась с компонентных выходов при помощи тюнера Beholder H8.
Впервые на трекере выложен перевод Сергея Визгунова! Тот самый перевод, с которым многие видели эту серию в 90ые и начале нулевых на видеокассетах.
Встречались ли другие серии данного аниме на видеокассетах - неизвестно.


Сэмпл

Качество: VHSRip
Формат видео: MPEG2
Контейнер: MPG
Аудио кодек: AC3
Видео: MPEG2 Video 720x576 (4:3) 25.000fps 15 000 Kbps
Аудио:

русская: Dolby AC3 48000Hz stereo 384Kbps [Сергей Визгунов]
01. Дело первое: Виртуальная смерть
02. File Two: The Decoy
03. File Three: Blood Lust
GeneralComplete name : XXXXXXXXXX\[M-KV2501] 01. Cyber City Oedo 808. File One - Virtual Death [VHS E-180] [AVO] (Сергей Визгунов).mpgFormat : MPEG-PSFile size : 4.43 GiBDuration : 42 min 10 sOverall bit rate mode : VariableOverall bit rate : 15.0 Mb/sWriting library : (dvd5: Oct 27 2015)

VideoID : 224 (0xE0)Format : MPEG VideoFormat version : Version 2Format profile : Main@MainFormat settings : CustomMatrix / BVOPFormat settings, BVOP : YesFormat settings, Matrix : CustomFormat settings, GOP : M=3, N=15Format settings, picture st : FrameDuration : 42 min 10 sBit rate mode : VariableBit rate : 14.3 Mb/sMaximum bit rate : 15.0 Mb/sWidth : 720 pixelsHeight : 576 pixelsDisplay aspect ratio : 4:3Frame rate : 25.000 FPSStandard : PALColor space : YUVChroma subsampling : 4:2:0Bit depth : 8 bitsScan type : InterlacedScan order : Top Field FirstCompression mode : LossyBits/(Pixel*Frame) : 1.384Time code of first frame : 00:00:00:00Time code source : Group of pictures headerStream size : 4.23 GiB (95%)Writing library : (dvd5: Oct 27 2015)

AudioID : 189 (0xBD)-128 (0x80)Format : AC-3Format/Info : Audio Coding 3Muxing mode : DVD-VideoDuration : 42 min 10 sBit rate mode : ConstantBit rate : 384 kb/sChannel(s) : 2 channelsChannel positions : Front: L RSampling rate : 48.0 kHzFrame rate : 31.250 FPS (1536 SPF)Bit depth : 16 bitsCompression mode : LossyStream size : 116 MiB (3%)Service kind : Complete Main
Внимание, данная раздача содержит эксклюзивный контент от M-KV2501 и РГ Мультфильмы. Использовать контент без баннера группы: и указания первоначального источника - ЗАПРЕЩЕНО! Уважайте чужой труд!


Трекер:  [ 05-Июл-2018 23:54 ]

  

Скачать .torrent

Размер .torrent файла 22 KB


Размер: 4.43 GB
Хэш (hash) релиза: 34e034444a8f6a71b3c817727dda4fa30e78c4ad
Подписка на обновления:

Еще никто не оставлял запись к записи скачать торрент Кибер-город Эдо 808 Кибер-город Идо 808 . Будь первым!

!Обратная связь