Скачать через торрент Альберт - пятый мушкетёр Albert the Fifth Musketeer Фильм бесплатно в хорошем качестве torrent

Скачивайте на UnionPeer.org фильмы через торрент без регистрации. Новинки кино в хорошем качестве через торрент. На UnionPeer.org можно скачать через торрент фильмы 2014 и 2015 годов. Самые новые фильмы.

Скачать торрент Альберт - пятый мушкетёр Albert the Fifth Musketeer бесплатно через .torrent фильм мультфильм сериал

Статистика раздачи
Размер:  8.6 GB   |    Зарегистрирован:  3 месяца 11 дней   |    .torrent скачан:  42 раза   |   
Раздают:  1  
   
загрузка...
 
Автор Сообщение

Galfimbul

avatar Galfimbul


Альберт - пятый мушкетёр / Albert the Fifth Musketeer / Albert le cinquième mousquetaire

Страна: Франция, Канада
Жанр: мультсериал, комедия, приключения
Продолжительность: ~23мин.
Год выпуска: 1993
Перевод: Профессиональный (полное дублирование) [Selena Int., по заказу ОРТ]*
*Роли дублировали: Владимир Антоник, Валентин Смирнитский, Александр Пожаров, Александр Рыжков, Леонид Белозорович, Ольга Голованова, Павел Иванов, Владимир Ферапонтов
Русские субтитры: нет
Режиссёр: Ален Сион / Alain Sion
Описание: "Вообще-то трёх мушкетеров пятеро." Приключения, дворцовые интриги, сражения на шпагах и т.д. Забавная версия истории о Трех мушкетерах.

Список серий:
01. Новые ботинки Короля / The King's New Shoes / Les Escarpins du Roi
02. Горилла её Величества / Her Majesty's Gorilla / Le Gorille de Sa Majesté
03. Золотая карета / The Gold Coach / Le Carrosse d'or
04. Королевский комплекс / The King's Complex / Le Complexe du Roi
05. Королевское угощение / Food For a King / La Cuisine royale
06. Фоторобот или словесный портрет / The Identikit Picture / Le Portrait robot
07. Сокровище Анатоля / Anatole's Treasure / Le Trésor d'Anatole
08. Пачулиссимо - духи для Королевы / Patchouil for the Queen / Patchouli pour la Reine
09. Король воров / King of Thieves / Le Roi des voleurs
10. Шпион / The Spy / L’Espion
11. Шоколадная миссия / The Cocoa Mission / La Mission cacao
12. Нянюшка Королевы / The Queen's Nanny / La Nounou de la Reine
13. Сад её Величества / The Queens Garden / Le Jardin de Sa Majesté
14. История о парике / Wig Business / L’Affaire de la perruque
15. Королевский шут / The King's Jester / Le Bouffon du Roi
16. Мелодии Герцога / The Duke's Tunes / Les Gammes de Buckingham
17. Граф Куикостро / The Count of Quicostro / Le Comte de Quicostro
18. Возвращение Королевы-матери / The Return of the Queen's Mother / Le Retour de la Reine-mère
19. Подушечный заговор / The Pillow Caper / Le Complot de l'oreiller
20. День мушкетёра / The Musketeer Day / La Journée du mousquetaire
21. Вы сказали привидение? / Ghost You Said? / Vous avez dit fantôme
22. Посол особого посола / The Ambassador / L'Ambassadeur
23. Черепахи для Королевы / The Queen's Tortoises / Les Tortues de la Reine
24. Морисетт Крютон / Mauricette Crouton / Mauricette Croûton
25. Земляника для Короля / Strawberries for the King / Des fraises pour le Roi
26. Удвоенный Герцог / A Duke Like Imposter / La Doublure du duc

красным отмечены отсутствующие серии в раздаче
| Релиз:
Доп. информация: Эта раздача представляет собой исходники (DVD-оцифровки), любезно предоставленные eltoons, с которых делались рипы для ее раздачи. <img class="smile" src="//static.t-ru.org/smiles/tr_respect.gif" alt=""> За что ей огромное спасибо! <img class="smile" src="//static.t-ru.org/smiles/tr_respect.gif" alt=""> Главное, что теперь звук сохранен в нормально-слушабельном качестве - в предыдущей раздачи VHSRipы были по какой-то причине с искажениями в виде звона. Исходный звук в оцифровках был в стерео с одним пустым каналом. Звук перекодировал, исходная дорога так же присутствует.

Серии 2-3, к которым мне передавал звук Nekontroliruemij_devil будут добавлены в раздачу позже, как только он сможет найти те кассеты снова, чтобы оцифровать вместе с видео.
Серия "Морисетт Крютон" использована из другой раздачи - ...888858
1я серия на русском не встречалась.

Версия, которую показывали у нас по тв - международная, т.е. титры/названия на английском.
Семпл: https://yadi.sk/i/q5KfF4NM3Yamp3

Качество: TVRip
Формат: MKV (4-23, 25-26 серии) | AVI (серия 24)
Видео кодек: MPEG-2 (4-23, 25-26 серии) | DivX (серия 24)
Аудио кодек: AC3 (4-23, 25-26 серии) | MP3 (серия 24)
Видео: PAL 4:3 (352x576), 25 fps, MPEG-2, 2037kbps (4-23, 25-26 серии) | 512x384, 25fps, DivX, 1619kbps (серия 24)
Аудио: 48 kHz, 2ch, 192/256 kbps, AC3 (4-23, 25-26 серии) | 44.1kHz, 1ch, 126kbps, MP3 (серия 24)
Субтитры: нет
<div class="sp-wrap">
<div class="sp-head folded">4-23, 25-26 серии</div>
<div class="sp-body">

GeneralUnique ID : 195067013368393657057947684687168441742 (0x92C08A4BE9AD80E89C1C831138A48D8E)Complete name : Albert the Fifth Musketeer (1993)\26. A Dukelike Imposter.mkvFormat : MatroskaFormat version : Version 4 / Version 2File size : 411 MiBDuration : 23 min 4 sOverall bit rate mode : VariableOverall bit rate : 2 489 kb/sEncoded date : UTC 2018-05-27 13:12:55Writing application : mkvmerge v9.7.1 ('Pandemonium') 64bitWriting library : libebml v1.3.4 + libmatroska v1.4.5

VideoID : 1Format : MPEG VideoFormat version : Version 2Format profile : Main@MainFormat settings : BVOPFormat settings, BVOP : YesFormat settings, Matrix : DefaultFormat settings, GOP : M=2, N=12Format settings, picture st : FrameCodec ID : V_MPEG2Codec ID/Info : MPEG 1 or 2 VideoDuration : 23 min 4 sBit rate mode : VariableBit rate : 2 037 kb/sMaximum bit rate : 3 740 kb/sWidth : 352 pixelsHeight : 576 pixelsDisplay aspect ratio : 4:3Frame rate mode : ConstantFrame rate : 25.000 FPSStandard : PALColor space : YUVChroma subsampling : 4:2:0Bit depth : 8 bitsScan type : InterlacedScan order : Top Field FirstCompression mode : LossyBits/(Pixel*Frame) : 0.402Time code of first frame : 01:32:15:22Time code source : Group of pictures headerGOP, Open/Closed : ClosedStream size : 336 MiB (82%)Default : YesForced : No

Audio #1ID : 2Format : AC-3Format/Info : Audio Coding 3Codec ID : A_AC3Duration : 23 min 4 sBit rate mode : ConstantBit rate : 192 kb/sChannel(s) : 1 channelChannel positions : Front: CSampling rate : 48.0 kHzFrame rate : 31.250 FPS (1536 SPF)Bit depth : 16 bitsCompression mode : LossyStream size : 31.7 MiB (8%)Title : Дубляж, Selena InternationalLanguage : RussianService kind : Complete MainDefault : YesForced : No

Audio #2ID : 3Format : AC-3Format/Info : Audio Coding 3Codec ID : A_AC3Duration : 23 min 4 sBit rate mode : ConstantBit rate : 256 kb/sChannel(s) : 2 channelsChannel positions : Front: L RSampling rate : 48.0 kHzFrame rate : 31.250 FPS (1536 SPF)Bit depth : 16 bitsCompression mode : LossyStream size : 42.3 MiB (10%)Title : Дубляж, Selena International (orig)Language : RussianService kind : Complete MainDefault : NoForced : No
GeneralComplete name : Albert the Fifth Musketeer (1993)\24. Mauricette Crouton.aviFormat : AVIFormat/Info : Audio Video InterleaveFile size : 187 MiBDuration : 14 min 52 sOverall bit rate mode : VariableOverall bit rate : 1 758 kb/sWriting application : Nandub v2.01 The advanced compression technology is developed by NeiromasterWriting library : Nandub 2.01 modified by Neiromaster

VideoID : 0Format : MPEG-4 VisualFormat settings : BVOP1Format settings, BVOP : 1Format settings, QPel : NoFormat settings, GMC : No warppointsFormat settings, Matrix : Default (H.263)Muxing mode : Packed bitstreamCodec ID : DX50Codec ID/Hint : DivX 5Duration : 14 min 52 sBit rate : 1 619 kb/sNominal bit rate : 4 854 kb/sWidth : 512 pixelsHeight : 384 pixelsDisplay aspect ratio : 4:3Frame rate : 25.000 FPSColor space : YUVChroma subsampling : 4:2:0Bit depth : 8 bitsScan type : ProgressiveCompression mode : LossyBits/(Pixel*Frame) : 0.329Stream size : 172 MiB (92%)Writing library : DivX 6.8.0 (UTC 2007-12-04)

AudioID : 1Format : MPEG AudioFormat version : Version 1Format profile : Layer 3Codec ID : 55Codec ID/Hint : MP3Duration : 14 min 52 sBit rate mode : VariableBit rate : 128 kb/sChannel(s) : 1 channelSampling rate : 44.1 kHzFrame rate : 38.281 FPS (1152 SPF)Compression mode : LossyDelay relative to video : 1 msStream size : 13.4 MiB (7%)Alignment : Aligned on interleavesInterleave, duration : 26 ms (0.65 video frame)Writing library : LAME3.96Encoding settings : -m m -V 4 -q 3 -lowpass 20.5 --abr 128
</div>
</div> <img class="smile" src="//static.t-ru.org/smiles/ges_help.gif" alt=""> <img class="smile" src="//static.t-ru.org/smiles/icon_exclaim.gif" alt=""> ВНИМАНИЕ <img class="smile" src="//static.t-ru.org/smiles/icon_exclaim.gif" alt=""> <img class="smile" src="//static.t-ru.org/smiles/ges_help.gif" alt="">

<div class="post-box-center">
<div class="post-box">- Большая просьба к тем, кто записывал тогда этот мультсериал на видеокассеты - проверьте свои записи. Нужны любые серии, даже те которые имеются в раздаче, и пусть даже не полностью. Пишите мне в ЛС, или в теме. Спасибо за внимание.</div>
</div>

Трекер:  [ 06-Июл-2018 08:24 ]

  

Скачать .torrent

Размер .torrent файла 23 KB


Размер: 8.6 GB
Хэш (hash) релиза: ca9a57691f485598de23f90983f1cb2fcf4b014c
Подписка на обновления:

Еще никто не оставлял запись к записи скачать торрент Альберт - пятый мушкетёр Albert the Fifth Musketeer . Будь первым!

!Обратная связь