Скачать через торрент Невеста-воровка Ogrigina Kelin Фильм бесплатно в хорошем качестве torrent

Скачивайте на UnionPeer.org фильмы через торрент без регистрации. Новинки кино в хорошем качестве через торрент. На UnionPeer.org можно скачать через торрент фильмы 2014 и 2015 годов. Самые новые фильмы.

Скачать торрент Невеста-воровка Ogrigina Kelin бесплатно через .torrent фильм мультфильм сериал

Статистика раздачи
Размер:  1.48 GB   |    Зарегистрирован:  3 месяца 17 дней   |    .torrent скачан:  26 раз   |   
Раздают:  1  
   
загрузка...
 
Автор Сообщение

Galfimbul

avatar Galfimbul


Невеста-воровка
O'g'rigina Kelin
Страна: Узбекистан
Жанр: комедия, мелодрама
Продолжительность: 01:30:31
Год выпуска: 2010
Перевод: Профессиональный (многоголосый закадровый)
Субтитры: отсутствуют
Режиссёр: Рустам Сагдиев: Dilshod Ahmedov
В ролях: Дилноза Кубаева, Улугбек Кадыров, Сайёра Юнусова, Рустам Саъдуллаев, Шоира Гиёсова.
Описание: Молодая девушка вынуждена продавать книги, предлагая их ежедневно прохожим на улицах Ташкента. Все деньги уходят на содержание и лечение больной матери, которая морально и физически пострадала после того, как отец семейства бросил жену и маленькую дочь. Главный герой работает в органах правопорядка. Сначала молодые "сталкиваются лбами" в неприятной ситуации в транспорте. Будучи оперативником - герой Улугбека Кадырова задерживает девушку и устраивает ей допрос в милиции. Для него девушка, торгующая на городских улицах, является ещё и транспортной воровкой. К счастью, наш герой не только профессионал, но и честный человек. Он не намерен бездоказательно обвинять "бедную" девушку в воровстве редких книг...
Семпл: https://www.sendspace.com/file/tp9rqh
Качество: DVB [ASTANA TV] (эфир 01.07.2018)
Формат: TS
Видео: AVC, 720x576 (16:9) @ 1047x576, 25 fps, ~2037 kbps, 0.197 bit/pixel
Аудио: [RUS] 48 kHz, MP2, 2 ch, 192 kbps
GeneralID : 1 (0x1)Complete name : F:\Невеста-воровка (2010).tsFormat : MPEG-TSFile size : 1.48 GiBDuration : 1 h 30 minOverall bit rate mode : VariableOverall bit rate : 2 347 kb/s

VideoID : 67 (0x43)Menu ID : 1 (0x1)Format : AVCFormat/Info : Advanced Video CodecFormat profile : High@L3Format settings : CABAC / 3 Ref FramesFormat settings, CABAC : YesFormat settings, ReFrames : 3 framesCodec ID : 27Duration : 1 h 30 minBit rate : 2 037 kb/sWidth : 720 pixelsHeight : 576 pixelsDisplay aspect ratio : 16:9Frame rate : 25.000 FPSStandard : ComponentColor space : YUVChroma subsampling : 4:2:0Bit depth : 8 bitsScan type : InterlacedScan type, store method : Separated fieldsScan order : Top Field FirstBits/(Pixel*Frame) : 0.197Stream size : 1.29 GiB (87%)Color range : LimitedColor primaries : BT.601 PALTransfer characteristics : BT.470 System B/GMatrix coefficients : BT.470 System B/G

AudioID : 68 (0x44)Menu ID : 1 (0x1)Format : MPEG AudioFormat version : Version 1Format profile : Layer 2Codec ID : 3Duration : 1 h 30 minBit rate mode : ConstantBit rate : 192 kb/sChannel(s) : 2 channelsSampling rate : 48.0 kHzFrame rate : 41.667 FPS (1152 SPF)Compression mode : LossyDelay relative to video : -40 msStream size : 124 MiB (8%)Language : English


Трекер:  [ 06-Июл-2018 11:54 ]

  

Скачать .torrent

Размер .torrent файла 15 KB


Размер: 1.48 GB
Хэш (hash) релиза: 218c731ec490af48382bc239745085ed2172510d
Подписка на обновления:

Еще никто не оставлял запись к записи скачать торрент Невеста-воровка Ogrigina Kelin . Будь первым!

!Обратная связь