Скачать через торрент Той любой ценой Фильм бесплатно в хорошем качестве torrent

Скачивайте на UnionPeer.org фильмы через торрент без регистрации. Новинки кино в хорошем качестве через торрент. На UnionPeer.org можно скачать через торрент фильмы 2014 и 2015 годов. Самые новые фильмы.

Скачать торрент Той любой ценой бесплатно через .torrent фильм мультфильм сериал

Статистика раздачи
Размер:  1.34 GB   |    Зарегистрирован:  3 месяца 17 дней   |    .torrent скачан:  33 раза   |   
Раздают:  1  
   
загрузка...
 
Автор Сообщение

Galfimbul

avatar Galfimbul


Той любой ценой
Страна: Казахстан
Жанр: комедия, семейный
Продолжительность: 01:24:56
Год выпуска: 2018
Перевод: не требуется
Субтитры: отсутствуют
Режиссёры: Канагат Мустафин, Айдын Самахан
В ролях: Шарип Серик, Айым Сейтметова, Жан Байжанбаев, Максим Акбаров, Фара, Кайрат Нуртас, Айкын Толепберген, Азат Сейтметов, Гани Кульжанов, Акбота-Нур Сейтмагамбет.
О фильме: Максат работает на местном телеканале. В преддверии свадьбы его родной сестры он теряет деньги, собранные для оплаты ресторана. Герой готов на многое, лишь бы семейный праздник все-таки состоялся. Для этого он предлагает своей команде сделать ток-шоу о свадьбе его сестры, но не говоря об этом родственникам. Героями шоу становятся реальные семьи, которых снимают на скрытые камеры.
Семпл: https://www.sendspace.com/file/rmdv90
Качество: DVB [НТК] (эфир 06.07.2018)
Формат: TS
Видео: AVC, 720x576 @ 1047x576 (16:9), 25 fps, ~1946 kbps, 0.188 bit/pixel
Аудио: [RUS] 48 kHz, MP2, 1 ch, 192 kbps
GeneralID : 1 (0x1)Complete name : H:\Раздачи\Той любой ценой (2018) [DVB].tsFormat : MPEG-TSFile size : 1.34 GiBDuration : 1 h 24 minOverall bit rate mode : VariableOverall bit rate : 2 252 kb/s

VideoID : 67 (0x43)Menu ID : 1 (0x1)Format : AVCFormat/Info : Advanced Video CodecFormat profile : High@L3Format settings : CABAC / 3 Ref FramesFormat settings, CABAC : YesFormat settings, ReFrames : 3 framesCodec ID : 27Duration : 1 h 24 minBit rate : 1 946 kb/sWidth : 720 pixelsHeight : 576 pixelsDisplay aspect ratio : 16:9Frame rate : 25.000 FPSStandard : ComponentColor space : YUVChroma subsampling : 4:2:0Bit depth : 8 bitsScan type : InterlacedScan type, store method : Separated fieldsScan order : Top Field FirstBits/(Pixel*Frame) : 0.188Stream size : 1.15 GiB (86%)Color range : LimitedColor primaries : BT.601 PALTransfer characteristics : BT.470 System B/GMatrix coefficients : BT.470 System B/G

AudioID : 68 (0x44)Menu ID : 1 (0x1)Format : MPEG AudioFormat version : Version 1Format profile : Layer 2Codec ID : 3Duration : 1 h 24 minBit rate mode : ConstantBit rate : 192 kb/sChannel(s) : 1 channelSampling rate : 48.0 kHzFrame rate : 41.667 FPS (1152 SPF)Compression mode : LossyStream size : 117 MiB (9%)Language : English


Трекер:  [ 06-Июл-2018 12:24 ]

  

Скачать .torrent

Размер .torrent файла 14 KB


Размер: 1.34 GB
Хэш (hash) релиза: 11228d4f6e34174a739596bc770d8f26ddab53af
Подписка на обновления:

Еще никто не оставлял запись к записи скачать торрент Той любой ценой . Будь первым!

!Обратная связь