Скачать через торрент Капитан Америка 1966 Captain America 1966 Сезон: 1 Фильм бесплатно в хорошем качестве torrent

Скачивайте на UnionPeer.org фильмы через торрент без регистрации. Новинки кино в хорошем качестве через торрент. На UnionPeer.org можно скачать через торрент фильмы 2014 и 2015 годов. Самые новые фильмы.

Скачать торрент Капитан Америка 1966 Captain America 1966 Сезон: 1 бесплатно через .torrent фильм мультфильм сериал

Статистика раздачи
Размер:  11.19 GB   |    Зарегистрирован:  3 месяца 8 дней   |    .torrent скачан:  27 раз   |   
Раздают:  1  
   
загрузка...
 
Автор Сообщение

Galfimbul

avatar Galfimbul



Капитан Америка 1966 / Captain America 1966
The Complete Series

Год выпуска: 1 сентября – 1 декабря 1966
Страна: США
Жанр: Экшен, приключения
Продолжительность: 17 мин.
Режиссёр: Ральф Бакши, Чак Харритон, Грант Симмонс / Ralph Bakshi, Chan harrison, Grant SimmonsОписание:
Мультсериал об одном из первых супергероев Вселенной MARVEL — Капитане Америка.

Хрупкий, но отважный юноша, Стив Роджерс в разгар Второй Мировой войны хочет идти воевать, но из-за слабого физического здоровья ему отказывают. Тогда его приглашают в секретную лабораторию для проведения опытов — как оказалось, ученые вывели специальный препарат под названием «Суперсолдат». Стивен Роджерс успешно участвует в эксперименте и становится Капитаном Америка — не знающим слова «нет» супергероем, заклятым врагом всех нацистских группировок…
Аудиодорожка 01: AC3 | 48khz | 2ch | 192kb/s Профессиональный (многоголосый закадровый)
Аудиодорожка 02: AC3 | 48khz | 2ch | 192kb/s Оригинал (english)
Субтитры : отсутствуют
Разбивка на главы : Есть

Качество: DVD-Remux
Формат: MKV
Видео кодек: MPEG2
Аудио кодек: AC3
Видео: MPEG-2 Video | PAL | 4:3 | 720x576 | 25.000 fps | 6500 Kbps/
Episode 1: The Origin of Captain America, Wreckers Among Us, Enter Red Skull
Episode 2: The Sentinel and the Spy, The Fantastic Origin of the Red Skull, Lest Tyranny Triumph
Episode 3: Midnight in Greymoor Castle, If This Be Treason, When You Lie Down With Dogs
Episode 4: Return of Captain America, The Search, To Live Again
Episode 5: Zemo and the Masters of Evil, Zemo Strikes, The Fury of Zemo
Episode 6: The Revenge of Captain America, The Trap Is Sprung, So Dies A Villain
Episode 7: Let The Past Be Gone, The Adaptoid, The Super Adaptoid
Episode 8: Coming of the Swordsman, Vengeance Is Ours, Emissary of Destruction
Episode 9: Bitter Taste of Defeat, Sorcery Triumph, The Road Back
Episode 10: Doorway to Doom, When the Commissar Commands, Duel Or Die
Episode 11: The Sleeper Shall Awake, Where Walks the Sleeper, The Final Sleep
Episode 12: The Girl from Cap's Past, The Stage Is Set, 30 Minutes to Live
Episode 13: The Red Skull Lives, He Who Holds the Cosmic Cube, The Red Skull Supreme
<div class="sp-wrap">
<div class="sp-head folded">Media info</div>
<div class="sp-body">

ОбщееУникальный идентификатор : 215889883597899601569910877514666397414 (0xA26AE1100CB06F48355030C6E578CEE6)Полное имя : D:\Ремуксы\[AORE] Captain America 1966\01. The Origin of Captain America.mkvФормат : MatroskaВерсия формата : Version 4 / Version 2Размер файла : 867 МбайтПродолжительность : 17 м. 31 с.Режим общего битрейта : ПостоянныйОбщий поток : 6919 Кбит/секДата кодирования : UTC 2018-07-03 16:35:38Программа кодирования : mkvmerge v23.0.0 ('The Bride Said No') 64-bitБиблиотека кодирования : libebml v1.3.6 + libmatroska v1.4.9

ВидеоИдентификатор : 1Формат : MPEG VideoВерсия формата : Version 2Профиль формата : Main@MainНастройки формата : CustomMatrix / BVOPПараметр BVOP формата : ДаПараметр матрицы формата : ВыборочнаяПараметр GOP формата : M=3, N=12Структура изображения : FrameИдентификатор кодека : V_MPEG2Идентификатор кодека/Информация : MPEG 1 or 2 VideoПродолжительность : 17 м. 31 с.Вид битрейта : ПостоянныйБитрейт : 6500 Кбит/секШирина : 720 пикселейВысота : 576 пикселейСоотношение сторон : 4:3Режим частоты кадров : ПостоянныйЧастота кадров : 25,000 кадров/секСтандарт вещания : PALЦветовое пространство : YUVСубдискретизация насыщенности : 4:2:0Битовая глубина : 8 битТип развёртки : ЧересстрочнаяПорядок развёртки : Верхнее поле первоеМетод сжатия : С потерямиБит/(Пиксели*Кадры) : 0.627Временной код первого кадра : 00:59:58:00Оригинал временного кода : Group of pictures headerGOP, открыто/закрыто : ЗакрытоРазмер потока : 815 Мбайт (94%)Язык : EnglishDefault : НетForced : Нет

Аудио #1Идентификатор : 2Формат : AC-3Формат/Информация : Audio Coding 3Идентификатор кодека : A_AC3Продолжительность : 17 м. 31 с.Вид битрейта : ПостоянныйБитрейт : 192 Кбит/секКаналы : 2 каналаРасположение каналов : Front: L RЧастота : 48,0 КГцЧастота кадров : 31,250 кадров/сек (1536 SPF)Битовая глубина : 16 битМетод сжатия : С потерямиРазмер потока : 24,1 Мбайт (3%)Язык : RussianServiceKind/String : Complete MainDefault : ДаForced : Нет

Аудио #2Идентификатор : 3Формат : AC-3Формат/Информация : Audio Coding 3Идентификатор кодека : A_AC3Продолжительность : 17 м. 31 с.Вид битрейта : ПостоянныйБитрейт : 224 Кбит/секКаналы : 2 каналаРасположение каналов : Front: L RЧастота : 48,0 КГцЧастота кадров : 31,250 кадров/сек (1536 SPF)Битовая глубина : 16 битМетод сжатия : С потерямиРазмер потока : 28,1 Мбайт (3%)Язык : EnglishServiceKind/String : Complete MainDefault : НетForced : Нет

Меню00:00:00.080 : en:Chapter 0100:06:10.640 : en:Chapter 0200:11:36.080 : en:Chapter 03
</div>
</div>
Информация о проекте:

Были использованы 2 DVD от Clear Vision. Ничего не пережималось и не кодировалось.
Русский DVDDVD-рип
Мои ремуксы




Трекер:  [ 08-Июл-2018 13:24 ]

  

Скачать .torrent

Размер .torrent файла 57 KB


Размер: 11.19 GB
Хэш (hash) релиза: 46bcf70182a27342b39968c19a8ee63924eb0b03
Подписка на обновления:

Еще никто не оставлял запись к записи скачать торрент Капитан Америка 1966 Captain America 1966 Сезон: 1 . Будь первым!

!Обратная связь