Скачать через торрент Бернард Bernard Фильм бесплатно в хорошем качестве torrent

Скачивайте на UnionPeer.org фильмы через торрент без регистрации. Новинки кино в хорошем качестве через торрент. На UnionPeer.org можно скачать через торрент фильмы 2014 и 2015 годов. Самые новые фильмы.

Скачать торрент Бернард Bernard бесплатно через .torrent фильм мультфильм сериал

Статистика раздачи
Размер:  6.25 GB   |    Зарегистрирован:  5 месяцев 2 дня   |    .torrent скачан:  40 раз   |   
Раздают:  1  
   
загрузка...
 
Автор Сообщение

Galfimbul

avatar Galfimbul


Бернард / Bernard

Страна: Франция / Испания / Южная Корея
Жанр: Комедия, короткометражный мультфильм
Продолжительность серии: 03:30
Год выпуска: 2006
Перевод: Не требуется
Русские субтитры: нет

Режиссёр: Клаудио Бьерн Лливирья, Хосе Луис Уча

Описание: Бернард - полярный медведь.
Бернард обожает приключения и путеществия, но постоянно влипает в одни только неприятности.
Природная любознательность и упрямство превращает любое дело, за которое он ни возмется Бернард, в сложное и опасное испытание.
Невероятно смешной мультсериал о похождениях самого нелепого и смешного медведя в мире заставляет смеяться до слез.
Бернард обожает спорт. Вечер в тренажерном зале и партия в гольф для начала, а потом фантастическое восхождение на снежную вершину.
Неутомимый Бернард готов к приключениям всегда - ведь даже просто покататься на качелях ему не удается без неприятностей.

Семпл: http://multi-up.com/1203476

Качество: WEB-DL 1080р
Формат: MKV
Видео: x264, 1920x1080, 24 fps, ~5000kbps
Аудио: E-AC3, 48 kHz, stereo, 224kbps
Субтитры: отсутствуют
The Gym (Спортзал)
Golf (Гольф)
Ice Climbing (Альпинист)
The Swing (Качели)
Security Guard (Охранник)
The Vending Machine (Торговый автомат)
Diving Board (Трамплин)
Watching TV (Телевизор)
Hitchhiking (Автостоп)
Sky Diving (Прыжок)
At the Theme Park (В парке)
A Day in the Country (День в деревне)
Learning to Fly (Полеты)
Close Encounters (Пришелец)
The Intruder (Вторжение)
Basketball (Баскетбол)
The Cart (Мотогонки)
Bowling (Боулинг)
Taekwondo (Таэквондо)
Scuba Diving (Дайвинг)
Doors (Двери)
At the Museum (В музее)
Street Racing (Уличные гонки)
The Desert Island (Необитаемый остров)
Baseball (Бейсбол)
The Car (Автомобиль)
The Flower (Цветок)
The Medallion (Медальон)
The Moth (Моль)
Bullfighter (Тореадор)
At the North Pole (Северный полюс)
The Package (Пакет)
Sleepwalker (Лунатик)
The Pizza (Пицца)
The Unicycle (Велосипед)
The Motorboat (Моторная лодка)
The Prisoner (Заключенный)
The Supermarket (Супермаркет)
The Mosquito (Комар)
Oasis (Оазис)
The Treasure (Сокровище)
The Window Cleaner (Мойщик окон)
Marathon (Марафон)
The Fumigator (Распылитель)
The Fumigator 2 (Распылитель 2)
Close Encounters 2 (Пришелец 2)
The Little Dog (Маленькая собачка)
A Lucky Day (Счастливый день)
The Storm (Шторм)
The Robot (Робот)
The Vacuum Cleaner (Пылесос)
A Day in the Country 2 (День в деревне 2)
VideoID : 1Format : AVCFormat/Info : Advanced Video CodecFormat profile : High@L4.0Format settings, CABAC : YesFormat settings, ReFrames : 4 framesFormat settings, GOP : M=9, N=120Codec ID : V_MPEG4/ISO/AVCDuration : 3mn 34sBit rate mode : VariableBit rate : 4 467 KbpsMaximum bit rate : 15.0 MbpsWidth : 1 920 pixelsHeight : 1 080 pixelsDisplay aspect ratio : 16:9Frame rate : 24.000 fpsColor space : YUVChroma subsampling : 4:2:0Bit depth : 8 bitsScan type : ProgressiveBits/(Pixel*Frame) : 0.090Stream size : 114 MiB (93%)Writing library : x264 core 148 r2623 d5b2374Encoding settings : cabac=1 / ref=4 / deblock=1:-1:-1 / analyse=0x3:0x133 / me=umh / subme=9 / psy=1 / psy_rd=1.00:0.15 / mixed_ref=1 / me_range=24 / chroma_me=1 / trellis=2 / 8x8dct=1 / cqm=0 / deadzone=21,11 / fast_pskip=1 / chroma_qp_offset=-3 / threads=34 / lookahead_threads=5 / sliced_threads=0 / nr=150 / decimate=1 / interlaced=0 / bluray_compat=0 / constrained_intra=0 / bframes=8 / b_pyramid=2 / b_adapt=2 / b_bias=0 / direct=3 / weightb=1 / open_gop=0 / weightp=2 / keyint=120 / keyint_min=61 / scenecut=0 / intra_refresh=0 / rc_lookahead=120 / rc=crf / mbtree=1 / crf=18.0 / qcomp=0.60 / qpmin=0 / qpmax=69 / qpstep=4 / vbv_maxrate=15000 / vbv_bufsize=31250 / crf_max=0.0 / nal_hrd=vbr / filler=0 / ip_ratio=1.40 / aq=3:1.00Color primaries : BT.709-5, BT.1361, IEC 61966-2-4, SMPTE RP177Transfer characteristics : BT.709-5, BT.1361Matrix coefficients : BT.709-5, BT.1361, IEC 61966-2-4 709, SMPTE RP177

AudioID : 2Format : E-AC-3Format/Info : Audio Coding 3Codec ID : A_EAC3Duration : 3mn 34sBit rate mode : ConstantBit rate : 224 KbpsChannel(s) : 2 channelsChannel positions : Front: L RSampling rate : 48.0 KHzCompression mode : LossyStream size : 5.72 MiB (5%)Language : English
<img class="smile" src="//static.t-ru.org/smiles/icon_arrow.gif" alt="">

Трекер:  [ 10-Июл-2018 20:24 ]

  

Скачать .torrent

Размер .torrent файла 21 KB


Размер: 6.25 GB
Хэш (hash) релиза: 72f74bfe0d41b9831eb00d233d613d05b07e1e1b
Подписка на обновления:

Торренты, похожие на Бернард Bernard скачать торрент

Форум Название Автор Размер S L Добавлен
Мультсериалы ·%· Бернард / Bernard / Сезон: 1 / Серии: 52 из 52 (Клаудио Бьерн Лливирья, Хосе Луис Уча) [2006, Франция / Испания / Южная Коре, Комедия, короткометражный мультфильм, DVDRip] Galfimbul 16542508441.54 GB 0 0 1529432664

21:24

19-Июн-18

Еще никто не оставлял запись к записи скачать торрент Бернард Bernard . Будь первым!

!Обратная связь