Скачать через торрент Человек-паук Marvels Spider-Man Фильм бесплатно в хорошем качестве torrent

Скачивайте на UnionPeer.org фильмы через торрент без регистрации. Новинки кино в хорошем качестве через торрент. На UnionPeer.org можно скачать через торрент фильмы 2014 и 2015 годов. Самые новые фильмы.

Скачать торрент Человек-паук Marvels Spider-Man бесплатно через .torrent фильм мультфильм сериал

Статистика раздачи
Размер:  18.62 GB   |    Зарегистрирован:  5 месяцев 6 дней   |    .torrent скачан:  42 раза   |   
Раздают:  1  
   
загрузка...
 
Автор Сообщение

Galfimbul

avatar Galfimbul


Человек-паук / Marvel's Spider-Man

Страна: США
Жанр: мультфильм, фантастика, боевик, приключения
Продолжительность серии: 00:22:07
Год выпуска: 2017
Перевод: Профессиональный (дублированный)
Русские субтитры: нет

Режиссёр: Филип Пиньотти, Эрик Радомски / Philip Pignotti, Eric Radomski
Роли озвучивали: Робби Дэймонд, Макс Миттелман, Фред Татаскьор, Наджи Джетер, Лора Бэйли, Джошуа Китон, Скотт Менвиль, Бен Дискин, Нэнси Линари

Описание: После укуса генетически модифицированного паука Питер Паркер пытается контролировать полученные суперспособности и бороться с преступностью в качестве супергероя - Человека-Паука.

Список серий:
00.Origin
01.Horizon.High.Part.1
02.Horizon.High.Part.2
03.Osborn.Academy
04.A.Day.in.the.Life
05.Party.Animals
06.Sandman
07.Symbiotic.Relationship
08.Stark.Expo
09.Ultimate.Spider-Man
10.Kravens.Amazing.Hunt
11.Halloween.Moon
12.Spider-Man.On.Ice
13.Venom
14.Screwball.Live
15.The.Rise.of.Doc.Ock.Part.1
16.The.Rise.of.Doc.Ock.Part.2
17.The.Rise.of.Doc.Ock.Part.3
18.The.Rise.of.Doc.Ock.Part.4
19.Spider-Island.Part.1
20.Spider-Island.Part.2
21.Spider-Island.Part.3
22.Spider-Island.Part.4
23.Spider-Island.Part.5
24.The.Hobgoblin.Part.1
25.The.Hobgoblin.Part.2

Семпл: http://multi-up.com/1203505

Качество: WEB-DL 720p
Формат: MKV
Видео: h264, 1280*720, 23.976fps, ~4000 kbps
Аудио: AC3, rus, 48000 Hz, 2ch, 192 kbps
Аудио 2: AC3, eng, 48000 Hz, 6ch, 384 kbps
Субтитры: английские
GeneralUnique ID : 91727342012511593911825343719526472257 (0x45020B20DB2A691C0F0BE29D90759A41)Format : MatroskaFormat version : Version 4 / Version 2File size : 730 MiBDuration : 22 min 7 sOverall bit rate : 4 613 kb/sEncoded date : UTC 2018-02-19 21:39:41Writing application : mkvmerge v20.0.0 ('I Am The Sun') 64-bitWriting library : libebml v1.3.5 + libmatroska v1.4.8

VideoID : 1Format : AVCFormat/Info : Advanced Video CodecFormat profile : High@L3.1Format settings, CABAC : NoFormat settings, ReFrames : 2 framesCodec ID : V_MPEG4/ISO/AVCDuration : 22 min 7 sBit rate : 4 035 kb/sWidth : 1 280 pixelsHeight : 720 pixelsDisplay aspect ratio : 16:9Frame rate mode : ConstantFrame rate : 23.976 (24000/1001) FPSColor space : YUVChroma subsampling : 4:2:0Bit depth : 8 bitsScan type : ProgressiveBits/(Pixel*Frame) : 0.183Stream size : 638 MiB (87%)Title : H.264Default : YesForced : NoColor range : LimitedColor primaries : BT.709Transfer characteristics : BT.709Matrix coefficients : BT.709

Audio #1ID : 2Format : AC-3Format/Info : Audio Coding 3Mode extension : CM (complete main)Format settings, Endianness : BigCodec ID : A_AC3Duration : 22 min 7 sBit rate mode : ConstantBit rate : 192 kb/sChannel(s) : 2 channelsChannel positions : Front: L RSampling rate : 48.0 kHzFrame rate : 31.250 FPS (1536 spf)Bit depth : 16 bitsCompression mode : LossyStream size : 30.4 MiB (4%)Language : RussianDefault : YesForced : No

Audio #2ID : 3Format : AC-3Format/Info : Audio Coding 3Mode extension : CM (complete main)Format settings, Endianness : BigCodec ID : A_AC3Duration : 22 min 7 sBit rate mode : ConstantBit rate : 384 kb/sChannel(s) : 6 channelsChannel positions : Front: L C R, Side: L R, LFESampling rate : 48.0 kHzFrame rate : 31.250 FPS (1536 spf)Bit depth : 16 bitsCompression mode : LossyStream size : 60.8 MiB (8%)Title : DD5.1Language : EnglishDefault : NoForced : No

TextID : 4Format : UTF-8Codec ID : S_TEXT/UTF8Codec ID/Info : UTF-8 Plain TextDuration : 21 min 35 sBit rate : 98 b/sCount of elements : 430Stream size : 15.6 KiB (0%)Title : CCLanguage : EnglishDefault : NoForced : No
Предыдущие и альтернативные раздачи

Трекер:  [ 10-Июл-2018 22:54 ]

  

Скачать .torrent

Размер .torrent файла 96 KB


Размер: 18.62 GB
Хэш (hash) релиза: c09028006ff9d4d8db608e859978820dc3aaaeae
Подписка на обновления:

Еще никто не оставлял запись к записи скачать торрент Человек-паук Marvels Spider-Man . Будь первым!

!Обратная связь