Скачать через торрент Дартаньгав и три пса-мушкетера Фильм бесплатно в хорошем качестве torrent

Скачивайте на UnionPeer.org фильмы через торрент без регистрации. Новинки кино в хорошем качестве через торрент. На UnionPeer.org можно скачать через торрент фильмы 2014 и 2015 годов. Самые новые фильмы.

Скачать торрент Дартаньгав и три пса-мушкетера бесплатно через .torrent фильм мультфильм сериал

Статистика раздачи
Размер:  22.52 GB   |    Зарегистрирован:  5 месяцев 1 день   |    .torrent скачан:  36 раз   |   
Раздают:  1  
   
загрузка...
 
Автор Сообщение

Galfimbul

avatar Galfimbul


Дартаньгав и три пса-мушкетера (Пёс Дартаньян и три мушкетёра) / Dartacan y los tres mosqueperros / Dogtanian and the Three Muskehounds

Страна: Испания, Япония
Жанр: Приключение, детский, семейный
Продолжительность серии: ~24 мин
Год выпуска: 1981
Перевод: Профессиональный (дублированный)
Русские субтитры: нет

Режиссёр: Таку Сугияма / Taku Sugiyama
Роли озвучивали: Студия Лайко

Описание: Д`Артаньгав (Д’Артаньян) и Три Пса-Мушкетёра — это мультипликационная версия классического романа Александра Дюма «Три мушкетёра». Большинство персонажей перевоплощено в собак. Исключением являются темпераментная Миледи (кошка); Пип, закодычный друг-мышонок Д`Артаньгава; Планше (медведь)-главная служка Д`Артаньгава, и одна свинья из стражей Кардинала.
История поведует о молодом Д`Артаньгаве, который отправляется в Париж в 17-ом веке по приказу, чтобы стать мушкетёром Короля Франции Луи 13-ого. Он быстро обзаводится друзьями — тремя мушкетёрами (Портос, Атос, Арамис) и влюбляется в Джульетту.

Список серий:
01. Приключения начинаются!
02. Д'Артаньян встречает Черного Уса
03. Париж - город мечты
04. Три непобедимых мушкетера
05. Месье Тревиль - капитан мушкетеров
06. Д'Артаньян встречает друзей
07. Знакомство с королем
08. Тайна Джульетты
09. Похищение Джульетты
10. Побег
11. Д'Артаньян под гипнозом
12. Д'Артаньян в ловушке
13. Д'Артаньян знакомится с месье Помом
14. Поиски Джульетты
15. Великий подвиг Д'Артаньяна
16. Кинжалы и бриллианты
17. Путешествие в Англию
18. Погоня
19. Испытание Д'Артаньяна
20. Д'Артаньян и Синий Сокол
21. Кораблекрушение
22. Приключения в джунглях
23. Миссия Марко
24. Самозванец
25. Месть Миледи
26. Мечта Д'Артаньяна сбывается

Доп. информация: Видео взято с этих раздач: ...4998272
Звук к большинству серий в своё время записывал со спутниковой трансляции телеканала Ямал-Регион.

Семпл: http://multi-up.com/1203534

Качество: DVD-Remux
Формат: MKV
Видео: PAL, 4:3, 720x576, ~5 421 Kbps
Аудио: Русский, AC3, 2 ch (двойное моно), 224 Kbps
Субтитры: отсутствуют
GeneralUnique ID : 108553958891038956228846379695366403656 (0x51AABB646AF1C9E2878E6DFC8FFAF648)Complete name : E:\Temp\Дартаньгав и три пса-мушкетёра\01 - Приключения начинаются!.mkvFormat : MatroskaFormat version : Version 4 / Version 2File size : 978 MiBDuration : 24mn 12sOverall bit rate mode : VariableOverall bit rate : 5 650 KbpsEncoded date : UTC 2018-06-29 08:05:39Writing application : mkvmerge v24.0.0 ('Beyond The Pale') 64-bitWriting library : libebml v1.3.6 + libmatroska v1.4.9

VideoID : 1Format : MPEG VideoFormat version : Version 2Format profile : Main@MainFormat settings, BVOP : YesFormat settings, Matrix : CustomFormat settings, GOP : M=3, N=9Format settings, picture st : FrameCodec ID : V_MPEG2Codec ID/Info : MPEG 1 or 2 VideoDuration : 24mn 12sBit rate mode : VariableBit rate : 5 421 KbpsMaximum bit rate : 7 000 KbpsWidth : 720 pixelsHeight : 576 pixelsDisplay aspect ratio : 4:3Frame rate mode : ConstantFrame rate : 25.000 fpsStandard : PALColor space : YUVChroma subsampling : 4:2:0Bit depth : 8 bitsScan type : InterlacedScan order : Top Field FirstCompression mode : LossyBits/(Pixel*Frame) : 0.523Time code of first frame : 00:00:00:00Time code source : Group of pictures headerGOP, Open/Closed : ClosedStream size : 939 MiB (96%)Default : YesForced : No

AudioID : 2Format : AC-3Format/Info : Audio Coding 3Mode extension : CM (complete main)Format settings, Endianness : BigCodec ID : A_AC3Duration : 24mn 12sBit rate mode : ConstantBit rate : 224 KbpsChannel(s) : 2 channelsChannel positions : Front: L RSampling rate : 48.0 KHzFrame rate : 31.250 fps (1536 spf)Compression mode : LossyStream size : 38.8 MiB (4%)Language : RussianDefault : YesForced : No
Предыдущие и альтернативные раздачи

Трекер:  [ 11-Июл-2018 14:24 ]

  

Скачать .torrent

Размер .torrent файла 58 KB


Размер: 22.52 GB
Хэш (hash) релиза: 050aba7024233958358b085140e3d15d72f62159
Подписка на обновления:

Еще никто не оставлял запись к записи скачать торрент Дартаньгав и три пса-мушкетера . Будь первым!

!Обратная связь