Скачать через торрент Смотри по сторонам Better Watch Out Фильм бесплатно в хорошем качестве torrent

Скачивайте на UnionPeer.org фильмы через торрент без регистрации. Новинки кино в хорошем качестве через торрент. На UnionPeer.org можно скачать через торрент фильмы 2014 и 2015 годов. Самые новые фильмы.

Скачать торрент Смотри по сторонам Better Watch Out бесплатно через .torrent фильм мультфильм сериал

Статистика раздачи
Размер:  3.73 GB   |    Зарегистрирован:  5 дней   |    .torrent скачан:  58 раз   |   
Раздают:  3  
   
загрузка...
 
Автор Сообщение

Galfimbul

avatar Galfimbul


Смотри по сторонам / Better Watch Out

Год выхода: 2016
Жанр: Ужасы, триллер
Страна: Австралия, США
Перевод: Дублированный | iTunes
Продолжительность: 01:28:50
Режиссер: Крис Пековер
В ролях: Оливия ДеДжонг, Леви Миллер, Эд Оксенбульд, Алекс Микич, Дакре Монтгомери, Патрик Варбертон, Вирджиния Мэдсен, Александра Матуско, Джорджия Холлэнд, Бо Андре и др.

О фильме: В доме на тихой пригородной улочке няня пытается защитить двенадцатилетнего мальчика от взломщиков, но вскоре обнаруживает, что это далеко не обыкновенное вторжение.



Файл
Качество: BDRip 720p
Видео: MPEG-4 AVC, 1280x536, 5000 kbps, 24,000 fps
Звук#1: русский, AC3 5.1, 48 kHz, 384 kbps | iTunes
Звук#2: английский, AC3 5.1, 48 kHz, 640 kbps | оригинал
Субтитры: английские
General
Уникальный идентификатор : 192179159544675496175791688771689292386 (0x90945C1C355AB647963AC9654F90A262)
Полное имя : F:TorrentBetterWatchOut2016BDRip720p.mkv
Формат : Matroska
Версия формата : Version 4 / Version 2
Размер файла : 3.73 GiB
Продолжительность : 1 h 28 min
Общий поток : 6 017 kb/s
Название фильма : Better.Watch.Out.2016.BDRemux.1080p-porvaliparus
Дата кодирования : UTC 2018-07-11 10:43:54
Программа кодирования : mkvmerge v9.5.0 ('Quiet Fire') 64bit
Библиотека кодирования : libebml v1.3.4 + libmatroska v1.4.5

Video
Идентификатор : 1
Формат : AVC
Формат/Информация : Advanced Video Codec
Профиль формата : High@L4.1
Настройки формата : CABAC / 9 Ref Frames
Параметр CABAC формата : Yes
Параметр RefFrames формата : 9 frames
Идентификатор кодека : V_MPEG4/ISO/AVC
Продолжительность : 1 h 28 min
Битрейт : 5 000 kb/s
Ширина : 1 280 pixels
Высота : 536 pixels
Соотношение сторон : 2.40:1
Режим частоты кадров : Constant
Частота кадров : 24.000 FPS
Цветовое пространство : YUV
Субдискретизация насыщенности : 4:2:0
Битовая глубина : 8 bits
Тип развёртки : Progressive
Бит/(Пиксели*Кадры) : 0.304
Размер потока : 3.10 GiB (83%)
Заголовок : Better.Watch.Out.2016.BDRemux.1080p
Библиотека кодирования : x264 core 155 r2901M 7d0ff22
Настройки программы : cabac=1 / ref=9 / deblock=1:-2:-2 / analyse=0x3:0x133 / me=umh / subme=11 / psy=1 / psy_rd=1.00:0.00 / mixed_ref=1 / me_range=48 / chroma_me=1 / trellis=2 / 8x8dct=1 / cqm=0 / deadzone=21,11 / fast_pskip=0 / chroma_qp_offset=-2 / threads=9 / lookahead_threads=2 / sliced_threads=0 / nr=0 / decimate=0 / interlaced=0 / bluray_compat=0 / constrained_intra=0 / bframes=10 / b_pyramid=2 / b_adapt=2 / b_bias=0 / direct=3 / weightb=1 / open_gop=0 / weightp=2 / keyint=240 / keyint_min=24 / scenecut=40 / intra_refresh=0 / rc_lookahead=120 / rc=2pass / mbtree=0 / bitrate=5000 / ratetol=1.0 / qcomp=0.70 / qpmin=0 / qpmax=69 / qpstep=4 / cplxblur=20.0 / qblur=0.5 / vbv_maxrate=50000 / vbv_bufsize=62500 / nal_hrd=none / filler=0 / ip_ratio=1.40 / pb_ratio=1.30 / aq=3:0.80
Default : Yes
Forced : No

Audio #1
Идентификатор : 2
Формат : AC-3
Формат/Информация : Audio Coding 3
Идентификатор кодека : A_AC3
Продолжительность : 1 h 28 min
Вид битрейта : Constant
Битрейт : 384 kb/s
Каналы : 6 channels
Расположение каналов : Front: L C R, Side: L R, LFE
Частота : 48.0 kHz
Частота кадров : 31.250 FPS (1536 SPF)
Битовая глубина : 16 bits
Метод сжатия : Lossy
Размер потока : 244 MiB (6%)
Язык : Russian
Default : Yes
Forced : No

Audio #2
Идентификатор : 3
Формат : AC-3
Формат/Информация : Audio Coding 3
Идентификатор кодека : A_AC3
Продолжительность : 1 h 28 min
Вид битрейта : Constant
Битрейт : 640 kb/s
Каналы : 6 channels
Расположение каналов : Front: L C R, Side: L R, LFE
Частота : 48.0 kHz
Частота кадров : 31.250 FPS (1536 SPF)
Битовая глубина : 16 bits
Метод сжатия : Lossy
Размер потока : 407 MiB (11%)
Язык : English
Default : No
Forced : No

Text
Идентификатор : 4
Формат : UTF-8
Идентификатор кодека : S_TEXT/UTF8
Идентификатор кодека/Информация : UTF-8 Plain Text
Продолжительность : 1 h 25 min
Битрейт : 55 b/s
ElementCount : 1306
Размер потока : 34.6 KiB (0%)
Язык : English
Default : No
Forced : No

Menu
00:00:00.000 : :Chapter 1
00:06:42.500 : :Chapter 2
00:11:53.000 : :Chapter 3
00:21:24.000 : :Chapter 4
00:29:56.083 : :Chapter 5
00:33:32.083 : :Chapter 6
00:44:51.708 : :Chapter 7
00:55:02.625 : :Chapter 8
01:02:11.542 : :Chapter 9
01:09:28.292 : :Chapter 10
01:17:59.000 : :Chapter 11
01:23:42.875 : :Chapter 12
Источник http://BlaTor.org

Трекер:  [ 11-Июл-2018 20:30 ]

  

Скачать .torrent

Размер .torrent файла 19 KB


Размер: 3.73 GB
Хэш (hash) релиза: 95f195281550b6057632deb53f4273b301cf815a
Подписка на обновления:

Торренты, похожие на Смотри по сторонам Better Watch Out скачать торрент

Форум Название Автор Размер S L Добавлен
Зарубежные фильмы до 2016 ·%· Смотри по сторонам / Better Watch Out (Крис Пековер / Chris Peckover) [2016, Австралия, США, ужасы, триллер, BDRemux 1080p] Dub (iTunes) + VO (BadBajo) + Sub Eng + Original Eng Galfimbul 1513978234414.1 GB 2 0 1531740671

14:31

16-Июл-18

Зарубежные фильмы до 2016 ·%· Смотри по сторонам / Better Watch Out (Крис Пековер / Chris Peckover) [2016, Австралия, США, ужасы, триллер, BDRip 720p] Dub (iTunes) + VO (BadBajo) + Sub Eng + Original Eng Galfimbul 45104346114.2 GB 0 0 1531740661

14:31

16-Июл-18

Зарубежные фильмы 2016-2018 (Новинки зарубежного кино) ·%· Смотри по сторонам / Better Watch Out (2016) BDRip 720p от HELLYWOOD | iTunes Galfimbul 30828097682.87 GB 2 0 1531377610

09:40

12-Июл-18

Зарубежные фильмы 2016-2018 (Новинки зарубежного кино) ·%· Смотри по сторонам / Better Watch Out (2016) BDRip | iTunes Galfimbul 15736528761.47 GB 3 0 1531330245

20:30

11-Июл-18

Зарубежные фильмы 2016-2018 (Новинки зарубежного кино) ·%· Смотри по сторонам / Better Watch Out (2016) BDRip-AVC | iTunes Galfimbul 21451634372 GB 0 0 1531330233

20:30

11-Июл-18

Зарубежные фильмы 2016-2018 (Новинки зарубежного кино) ·%· Смотри по сторонам / Better Watch Out (2016) BDRip 1080p | iTunes Galfimbul 70085224706.53 GB 0 0 1531330210

20:30

11-Июл-18

Зарубежные фильмы 2016-2018 (Новинки зарубежного кино) ·· Смотри по сторонам / Better Watch Out (Крис Пековер) [2016 г., ужасы, триллер, комедия, HDRip] MVO | Синема УС Galfimbul 14592081921.36 GB 0 0 1512034197

12:29

30-Ноя-17

Зарубежные фильмы 2016-2018 (Новинки зарубежного кино) ·%· Смотри по сторонам / Лучше берегись / Better Watch Out (2016) BDRip-AVC от OlLanDGroup | iTunes Galfimbul 15228441211.42 GB 0 0 1531590011

20:40

14-Июл-18

Зарубежные фильмы 2016-2018 (Новинки зарубежного кино) ·%· Смотри по сторонам / Лучше берегись / Better Watch Out (Крис Пековер / Chris Peckover) [2016, Австралия, США, ужасы, триллер, BDRip] Dub (iTunes) Galfimbul 15629250561.46 GB 0 0 1531553414

10:30

14-Июл-18

Зарубежные фильмы 2016-2018 (Новинки зарубежного кино) ·%· Смотри по сторонам / Лучше берегись / Better Watch Out (2016) HDRip от Scarabey | iTunes Galfimbul 15860654081.48 GB 0 0 1531502416

20:20

13-Июл-18

Зарубежные фильмы 2016-2018 (Новинки зарубежного кино) ·%· Смотри по сторонам / Лучше берегись / Better Watch Out (2016) BDRip от ExKinoRay | iTunes Galfimbul 15255876441.42 GB 2 0 1531473607

12:20

13-Июл-18

Зарубежные фильмы 2016-2018 (Новинки зарубежного кино) ·%· Смотри по сторонам / Лучше берегись / Better Watch Out (2016) BDRip от MegaPeer | iTunes Galfimbul 781310122745 MB 0 0 1531382406

11:00

12-Июл-18

Зарубежные фильмы 2016-2018 (Новинки зарубежного кино) ·· Смотри по сторонам (Лучше берегись) / Better Watch Out (Крис Пековер) [2016, Триллер, Комедия, Ужасы, BDRip 720p] Galfimbul 30367435322.83 GB 0 0 1516385465

21:11

19-Янв-18

Зарубежные фильмы 2016-2018 (Новинки зарубежного кино) ·· Смотри по сторонам (Лучше берегись) / Better Watch Out (Крис Пековер) [2016, Триллер, Комедия, Ужасы, HDRip] Galfimbul 14375649281.34 GB 0 0 1516385438

21:10

19-Янв-18

Зарубежные фильмы 2016-2018 (Новинки зарубежного кино) ·· Смотри по сторонам (Лучше берегись) / Better Watch Out (Крис Пековер) [2016, Триллер, Комедия, Ужасы, BDRip 1080p] Galfimbul 83180820367.75 GB 0 0 1512405612

19:40

4-Дек-17

Зарубежные фильмы 2016-2018 (Новинки зарубежного кино) ·· Смотри по сторонам (Лучше берегись) / Better Watch Out (Крис Пековер) [2016, Триллер, Комедия, Ужасы, WEB-DL 1080p] BadBajo Galfimbul 35531987463.31 GB 0 0 1507872014

08:20

13-Окт-17

Еще никто не оставлял запись к записи скачать торрент Смотри по сторонам Better Watch Out . Будь первым!

!Обратная связь