Скачать через торрент [VIDEO] Бегущий по лезвию Blade Runner бесплатно русская версия torrent активатор

Статистика раздачи
Размер:  3.13 GB   |    Зарегистрирован:  3 месяца 1 день   |    .torrent скачан:  15 раз   |   
Раздают:  1  
   
загрузка...
 
Автор Сообщение

Galfimbul

avatar Galfimbul


Бегущий по лезвию / Blade Runner
[международная кинотеатральная версия / International theatrical cut]

Год выпуска: 1982
Страна: США, Гонконг
Жанр: драма, триллер, фантастика
Продолжительность: 01:57:39
Перевод №1: русский Профессиональный (полное дублирование) с VHS
Перевод №2: русский Профессиональный (многоголосый, закадровый) студия "Карусель"
Перевод №3: русский Авторский (одноголосый, закадровый) А.Гаврилов
Перевод №4: русский Авторский (одноголосый, закадровый) В.Горчаков
Перевод №5: русский Авторский (одноголосый, закадровый) М.Иванов
Перевод №6: русский Авторский (одноголосый, закадровый) Л.Володарский
Оригинальная дорожка: Есть
Субтитры: русские (Forced на непереведённый финальный монолог для дорожек с переводом А. Гаврилова и В. Горчакова), (Forced на непереведённые фрагменты для дорожки с переводом Л. Володарского), (Full), английские (Full)
Режиссер: Ридли Скотт / Ridley Scott
В ролях: Харрисон Форд, Рутгер Хауэр, Шон Янг, Эдвард Джеймс Олмос, М. Эммет Уолш, Дэрил Ханна, Уильям Сэндерсон, Брайон Джеймс Дин и другие .
Описание: Отставной детектив Рик Декард вновь восстановлен в полиции Лос-Анджелеса для поиска возглавляемой Роем Батти группы киборгов, совершившей побег из космической колонии на Землю.
[i]Релиз группы

Качество: BDRip / рип с BDRemux 1080p [International theatrical cut]
Формат: MP4
Видео кодек: H.264
Аудио кодек: AAC
Видео: 1280x532 AR:2.41 2900 kbps 23.976 fps
Аудио №1: [Russian] 2ch 48 kHz 128 kbps - [Dub] Профессиональный (полное дублирование) с VHS
Аудио №2: [Russian] 2ch 48 kHz 128 kbps - [MVO] Любительский (многоголосый, закадровый) студия "Карусель"
Аудио №3: [Russian] 2ch 48 kHz 128 kbps - [VO] Авторский (одноголосый, закадровый) А.Гаврилов
Аудио №4: [Russian] 2ch 48 kHz 128 kbps - [VO] Авторский (одноголосый, закадровый) В.Горчаков
Аудио №5: [Russian] 2ch 48 kHz 128 kbps - [VO] Авторский (одноголосый, закадровый) М.Иванов
Аудио №6: [Russian] 2ch 48 kHz 128 kbps - [VO] Авторский (одноголосый, закадровый) Л.Володарский
Аудио №7: [English] 2ch 48 kHz 128 kbps - Original
avs [info]: 1280x532p 1:1 @ 24000/1001 fps (cfr)
x264 [info]: using SAR=1/1
x264 [info]: using cpu capabilities: MMX2 SSE2Fast SSSE3 SSE4.2 AVX FMA3 BMI2 AVX2
x264 [info]: profile High, level 4.1

x264 [info]: frame I:1007 Avg QP:17.46 size: 70652
x264 [info]: frame P:34690 Avg QP:20.74 size: 28504
x264 [info]: frame B:133382 Avg QP:22.59 size: 11208
x264 [info]: consecutive B-frames: 1.9% 2.5% 5.4% 17.2% 16.1% 37.1% 8.2% 4.9% 2.4% 2.9% 1.5%
x264 [info]: mb I I16..4: 5.6% 82.9% 11.5%
x264 [info]: mb P I16..4: 0.7% 8.8% 0.9% P16..4: 36.3% 38.8% 9.3% 0.0% 0.0% skip: 5.3%
x264 [info]: mb B I16..4: 0.1% 0.8% 0.1% B16..8: 41.0% 18.9% 2.5% direct: 5.7% skip:31.0% L0:48.9% L1:45.0% BI: 6.1%
x264 [info]: 8x8 transform intra:84.1% inter:64.7%
x264 [info]: direct mvs spatial:98.8% temporal:1.2%
x264 [info]: coded y,uvDC,uvAC intra: 88.0% 72.6% 34.1% inter: 31.0% 21.8% 3.1%
x264 [info]: i16 v,h,dc,p: 27% 14% 7% 51%
x264 [info]: i8 v,h,dc,ddl,ddr,vr,hd,vl,hu: 11% 5% 5% 11% 16% 15% 14% 12% 12%
x264 [info]: i4 v,h,dc,ddl,ddr,vr,hd,vl,hu: 27% 6% 5% 8% 12% 12% 11% 9% 10%
x264 [info]: i8c dc,h,v,p: 30% 29% 21% 20%
x264 [info]: Weighted P-Frames: Y:24.1% UV:15.1%
x264 [info]: ref P L0: 37.8% 8.5% 18.7% 8.1% 7.0% 5.1% 4.7% 2.6% 2.6% 2.1% 2.2% 0.6% 0.1%
x264 [info]: ref B L0: 62.1% 14.1% 8.1% 4.5% 3.3% 2.8% 2.3% 1.5% 0.9% 0.4%
x264 [info]: ref B L1: 92.4% 7.6%
x264 [info]: kb/s:2898.39

encoded 169079 frames, 8.94 fps, 2898.40 kb/s
GeneralComplete name : K:\Torrents\Blade Runner.[International theatrical cut].1982.BDRip.x264.1280x.rip by Frost O.S.mp4Format : MPEG-4Format profile : 3GPP Release 6 GeneralCodec ID : 3gg6 (isom/3gg6/mp42)File size : 3.13 GiBDuration : 1 h 57 minOverall bit rate mode : VariableOverall bit rate : 3 805 kb/sEncoded date : UTC 2018-07-15 07:13:03Tagged date : UTC 2018-07-15 07:13:03Writing application : Yamb 2.1.0.0

VideoID : 1Format : AVCFormat/Info : Advanced Video CodecFormat profile : High@L4.1Format settings : CABAC / 11 Ref FramesFormat settings, CABAC : YesFormat settings, RefFrames : 11 framesCodec ID : avc1Codec ID/Info : Advanced Video CodingDuration : 1 h 57 minBit rate : 2 900 kb/sMaximum bit rate : 11.9 Mb/sWidth : 1 280 pixelsHeight : 532 pixelsDisplay aspect ratio : 2.40:1Frame rate mode : ConstantFrame rate : 23.976 (24000/1001) FPSColor space : YUVChroma subsampling : 4:2:0Bit depth : 8 bitsScan type : ProgressiveBits/(Pixel*Frame) : 0.178Stream size : 2.38 GiB (76%)Writing library : x264 core 152 r2851 ba24899Encoding settings : cabac=1 / ref=11 / deblock=1:-2:-1 / analyse=0x3:0x113 / me=umh / subme=11 / psy=1 / psy_rd=0.95:0.00 / mixed_ref=1 / me_range=32 / chroma_me=1 / trellis=2 / 8x8dct=1 / cqm=0 / deadzone=21,11 / fast_pskip=0 / chroma_qp_offset=-2 / threads=6 / lookahead_threads=1 / sliced_threads=0 / nr=0 / decimate=0 / interlaced=0 / bluray_compat=0 / constrained_intra=0 / bframes=10 / b_pyramid=2 / b_adapt=2 / b_bias=0 / direct=3 / weightb=1 / open_gop=0 / weightp=2 / keyint=250 / keyint_min=23 / scenecut=40 / intra_refresh=0 / rc=2pass / mbtree=0 / bitrate=2900 / ratetol=1.0 / qcomp=0.70 / qpmin=0 / qpmax=69 / qpstep=4 / cplxblur=20.0 / qblur=0.5 / ip_ratio=1.40 / pb_ratio=1.30 / aq=2:0.80Encoded date : UTC 2018-07-14 15:22:13Tagged date : UTC 2018-07-15 07:13:54Color range : LimitedColor primaries : BT.709Transfer characteristics : BT.709Matrix coefficients : BT.709

Audio #1ID : 2Format : AACFormat/Info : Advanced Audio CodecFormat profile : LCCodec ID : mp4a-40-2Duration : 1 h 57 minBit rate mode : VariableBit rate : 128 kb/sMaximum bit rate : 136 kb/sChannel(s) : 2 channelsChannel positions : Front: L RSampling rate : 48.0 kHzFrame rate : 46.875 FPS (1024 SPF)Compression mode : LossyStream size : 108 MiB (3%)Title : Russian / Dub, c VHSEncoded date : UTC 2018-07-15 06:58:16Tagged date : UTC 2018-07-15 07:13:54

Audio #2ID : 3Format : AACFormat/Info : Advanced Audio CodecFormat profile : LCCodec ID : mp4a-40-2Duration : 1 h 57 minBit rate mode : VariableBit rate : 128 kb/sMaximum bit rate : 133 kb/sChannel(s) : 2 channelsChannel positions : Front: L RSampling rate : 48.0 kHzFrame rate : 46.875 FPS (1024 SPF)Compression mode : LossyStream size : 108 MiB (3%)Title : Russian / MVO, studiya KaruselEncoded date : UTC 2018-07-15 06:43:05Tagged date : UTC 2018-07-15 07:13:54

Audio #3ID : 4Format : AACFormat/Info : Advanced Audio CodecFormat profile : LCCodec ID : mp4a-40-2Duration : 1 h 57 minBit rate mode : VariableBit rate : 128 kb/sMaximum bit rate : 134 kb/sChannel(s) : 2 channelsChannel positions : Front: L RSampling rate : 48.0 kHzFrame rate : 46.875 FPS (1024 SPF)Compression mode : LossyStream size : 108 MiB (3%)Title : Russian / VO, GavrilovEncoded date : UTC 2018-07-15 07:01:33Tagged date : UTC 2018-07-15 07:13:54

Audio #4ID : 5Format : AACFormat/Info : Advanced Audio CodecFormat profile : LCCodec ID : mp4a-40-2Duration : 1 h 57 minBit rate mode : VariableBit rate : 128 kb/sMaximum bit rate : 134 kb/sChannel(s) : 2 channelsChannel positions : Front: L RSampling rate : 48.0 kHzFrame rate : 46.875 FPS (1024 SPF)Compression mode : LossyStream size : 108 MiB (3%)Title : Russian / VO, GorchakovEncoded date : UTC 2018-07-15 06:50:47Tagged date : UTC 2018-07-15 07:13:54

Audio #5ID : 6Format : AACFormat/Info : Advanced Audio CodecFormat profile : LCCodec ID : mp4a-40-2Duration : 1 h 57 minBit rate mode : VariableBit rate : 128 kb/sMaximum bit rate : 133 kb/sChannel(s) : 2 channelsChannel positions : Front: L RSampling rate : 48.0 kHzFrame rate : 46.875 FPS (1024 SPF)Compression mode : LossyStream size : 108 MiB (3%)Title : Russian / VO, IvanovEncoded date : UTC 2018-07-15 06:39:24Tagged date : UTC 2018-07-15 07:13:54

Audio #6ID : 7Format : AACFormat/Info : Advanced Audio CodecFormat profile : LCCodec ID : mp4a-40-2Duration : 1 h 57 minBit rate mode : VariableBit rate : 128 kb/sMaximum bit rate : 134 kb/sChannel(s) : 2 channelsChannel positions : Front: L RSampling rate : 48.0 kHzFrame rate : 46.875 FPS (1024 SPF)Compression mode : LossyStream size : 108 MiB (3%)Title : Russian / VO, VolodarskiyEncoded date : UTC 2018-07-15 06:54:36Tagged date : UTC 2018-07-15 07:13:54

Audio #7ID : 8Format : AACFormat/Info : Advanced Audio CodecFormat profile : LCCodec ID : mp4a-40-2Duration : 1 h 57 minBit rate mode : VariableBit rate : 128 kb/sMaximum bit rate : 134 kb/sChannel(s) : 2 channelsChannel positions : Front: L RSampling rate : 48.0 kHzFrame rate : 46.875 FPS (1024 SPF)Compression mode : LossyStream size : 108 MiB (3%)Title : English / OriginalEncoded date : UTC 2018-07-15 06:46:58Tagged date : UTC 2018-07-15 07:13:54

Text #1ID : 9Format : Timed TextCodec ID : tx3gDuration : 1 h 53 minBit rate mode : VariableBit rate : 1 b/sStream size : 461 Bytes (0%)Title : Russian / Forced for Gavrilova&GorchakovaForced : NoEncoded date : UTC 2018-07-15 07:13:54Tagged date : UTC 2018-07-15 07:13:54

Text #2ID : 10Format : Timed TextCodec ID : tx3gDuration : 36 min 41 sBit rate mode : VariableBit rate : 4 b/sStream size : 1 004 Bytes (0%)Title : Russian / Forced for VolodarskogoForced : NoEncoded date : UTC 2018-07-15 07:13:54Tagged date : UTC 2018-07-15 07:13:54

Text #3ID : 11Format : Timed TextCodec ID : tx3gDuration : 1 h 57 minBit rate mode : VariableBit rate : 56 b/sStream size : 48.6 KiB (0%)Title : Russian / FullForced : NoEncoded date : UTC 2018-07-15 07:13:54Tagged date : UTC 2018-07-15 07:13:54

Text #4ID : 12Format : Timed TextCodec ID : tx3gDuration : 1 h 53 minBit rate mode : VariableBit rate : 31 b/sStream size : 25.7 KiB (0%)Title : English / FullForced : NoEncoded date : UTC 2018-07-15 07:13:54Tagged date : UTC 2018-07-15 07:13:54


Трекер:  [ 15-Июл-2018 11:06 ]

  

Скачать .torrent

Размер .torrent файла 16 KB


Размер: 3.13 GB
Хэш (hash) релиза: e74f953621485cb8442e34957721a5152e9b737d

Торренты, похожие на [VIDEO] Бегущий по лезвию Blade Runner скачать торрент

Форум Название Автор Размер S L Добавлен
Видео (Фильмы/Клипы) ·%· [VIDEO] Бегущий по лезвию / Blade Runner (Ридли Скотт / Ridley Scott) [1982, драма, триллер, фантастика, BDRip] [MP4, 960x] [международная кинотеатральная версия / International theatrical cut] Galfimbul 23363383932.18 GB 0 0 1531641998

11:06

15-Июл-18

Видео (Фильмы/Клипы) ·%· [VIDEO] Бегущий по лезвию / Blade Runner (Ридли Скотт / Ridley Scott) [1982, драма, триллер, фантастика, BDRip] [MP4, 480x] [международная кинотеатральная версия / International theatrical cut] Galfimbul 561291455535 MB 0 0 1531641979

11:06

15-Июл-18

Видео (Фильмы/Клипы) ·%· [VIDEO] Бегущий по лезвию / Blade Runner (Ридли Скотт / Ridley Scott) [1982, драма, триллер, фантастика, BDRip] [MP4, 480x] [Финальная версия / Final Cut] Dub Blu-ray CEE Galfimbul 557271847531 MB 0 0 1531557403

11:36

14-Июл-18

Видео (Фильмы/Клипы) ·%· [VIDEO] Бегущий по лезвию / Blade Runner (Ридли Скотт / Ridley Scott) [1982, драма, триллер, фантастика, BDRip] [MP4, 960x] [Финальная версия / Final Cut] Galfimbul 26079931322.43 GB 0 0 1531557395

11:36

14-Июл-18

Видео (Фильмы/Клипы) ·%· [VIDEO] Бегущий по лезвию / Blade Runner (Ридли Скотт / Ridley Scott) [1982, драма, триллер, фантастика, BDRip] [MP4, 1280x] [Финальная версия / Final Cut] Galfimbul 34000759113.17 GB 0 0 1531557385

11:36

14-Июл-18

Видео (Фильмы/Клипы) ·· [VIDEO] Бегущий по лезвию 2049 / Blade Runner 2049 (Дени Вильнёв / Denis Villeneuve) [2017, фантастика, триллер, драма, BDRip] [MP4, 480x] [Оригинальный видеоряд] Dub Blu-Ray EUR Galfimbul 706825536674 MB 0 0 1527410180

11:36

27-Май-18

Видео (Фильмы/Клипы) ·· [VIDEO] Бегущий по лезвию 2049 / Blade Runner 2049 (Дени Вильнёв / Denis Villeneuve) [2017, фантастика, триллер, драма, BDRip] [MP4, 1280x] [Оригинальный видеоряд] Dub (Rus, Ukr), VO Д. Есарев, VO Solod, Original, Sub (rus, ukr, eng) Galfimbul 28828708452.68 GB 0 0 1527397586

08:06

27-Май-18

Видео (Фильмы/Клипы) ·· [VIDEO] Бегущий по лезвию 2049 / Blade Runner 2049 (Дени Вильнёв / Denis Villeneuve) [2017, фантастика, триллер, драма, BDRip] [MP4, 960x] [Оригинальный видеоряд] Dub (Rus, Ukr), VO Д. Есарев, VO Solod, Original, Sub (rus, ukr, eng) Galfimbul 20244038841.89 GB 0 0 1527397578

08:06

27-Май-18

Еще никто не оставлял запись к записи скачать торрент [VIDEO] Бегущий по лезвию Blade Runner . Будь первым!

!Обратная связь