Скачать через торрент музыку Поговори с ней Hable Con Ella бесплатно без регистрации torrent

Статистика раздачи
Размер:  294 MB   |    Зарегистрирован:  8 месяцев   |    .torrent скачан:  43 раза   |   
Раздают:  1  
   
загрузка...
 
Автор Сообщение

Galfimbul

avatar Galfimbul


Поговори с ней / Hable Con Ella/Talk To Her

Название альбома: Talk To Her. A Film By Pedro Almodovar
Жанр: Score
Композитор: Alberto Iglesias
Год выпуска диска: 2002
Год выпуска фильма: 2002
Страна-производитель диска: Canada
Издатель (лейбл): El Deseo S.A./Editions Milan Music
Номер по каталогу: CD36005
Аудиокодек: FLAC (*.flac)
Тип рипа: tracks+.cue
Битрейт аудио: lossless
Продолжительность: 1:03:35.
Источник: собственный рип
Наличие сканов в содержимом раздачи: да
Треклист:
01. Sabana Santa [0:01:03.67]
02. Hable Con Ella / Vicente Amigo & El Pele [0:05:17.60]
03. Cucurrucucú Paloma / Caetana Veloso [0:03:50.05]
04. El Grito [0:03:29.17]
05. Por Toda A Minha Vida / Ellis Regina & Tom Jobin [0:02:08.13]
06. La Mesita De Noche [0:01:45.38]
07. Jordania [0:02:51.65]
08. El Amante Menguante [0:08:28.03]
09. Maria Santísima De Araceli [0:02:12.32]
10. La Noche Y El Viento [0:01:10.13]
11. Trincheras / Decadence [0:03:29.34]
12. Habitacion De Alicia [0:01:49.67]
13. A Portagayola [0:01:48.37]
14. La Discusión Viaja En Coche [0:03:43.67]
15. Alicia Vive [0:02:46.12]
16. Los Olivos [0:01:15.22]
17. Amanecer Agitado [0:01:57.62]
18. Soy Marco [0:02:21.43]
19. Raquel (performed by Bau) [0:04:11.18]
20. The Plaint - O Let me Weep, For Ever Weep (Henry Purcell) [0:07:54.47]
Exact Audio Copy V1.0 beta 3 from 29. August 2011

Отчёт EAC об извлечении, выполненном 12. апреля 2018, 21:59

Alberto Iglesias / Talk To Her. (A Film By Pedro Almodovar)

Дисковод: ASUS DRW-1814BLT Adapter: 5 ID: 0

Режим чтения : ДостоверностьИспользование точного потока : ДаОтключение кэша аудио : ДаИспользование указателей C2 : Нет

Коррекция смещения при чтении : 6Способность читать области Lead-in и Lead-out : НетЗаполнение пропущенных сэмплов тишиной : ДаУдаление блоков с тишиной в начале и конце : НетПри вычислениях CRC использовались нулевые сэмплы : ДаИнтерфейс : Встроенный Win32-интерфейс для Win NT/2000Обработка зазоров : Добавлено к предыдущему треку

Выходной формат : Пользовательский кодировщикВыбранный битрейт : 128 kBit/sКачество : ВысокийДобавление ID3-тега : НетУтилита сжатия : C:\Program Files\Exact Audio Copy\Flac\flac.exeДополнительные параметры : -V -8 -T "Genre=%genre%" -T "Artist=%artist%" -T "Title=%title%" -T "Album=%albumtitle%" -T "Date=%year%" -T "Tracknumber=%tracknr%" -T "Comment=EAC1.0b2 FLAC -8" %source%

TOC извлечённого CD

Трек | Старт | Длительность | Начальный сектор | Конечный сектор --------------------------------------------------------------------- 1 | 0:00.00 | 1:03.67 | 0 | 4791 2 | 1:03.67 | 5:17.60 | 4792 | 28626 3 | 6:21.52 | 3:50.05 | 28627 | 45881 4 | 10:11.57 | 3:29.17 | 45882 | 61573 5 | 13:40.74 | 2:08.13 | 61574 | 71186 6 | 15:49.12 | 1:45.38 | 71187 | 79099 7 | 17:34.50 | 2:51.65 | 79100 | 91989 8 | 20:26.40 | 8:28.03 | 91990 | 130092 9 | 28:54.43 | 2:12.32 | 130093 | 140024 10 | 31:07.00 | 1:10.13 | 140025 | 145287 11 | 32:17.13 | 3:29.34 | 145288 | 160996 12 | 35:46.47 | 1:49.67 | 160997 | 169238 13 | 37:36.39 | 1:48.37 | 169239 | 177375 14 | 39:25.01 | 3:43.67 | 177376 | 194167 15 | 43:08.68 | 2:46.12 | 194168 | 206629 16 | 45:55.05 | 1:15.22 | 206630 | 212276 17 | 47:10.27 | 1:57.62 | 212277 | 221113 18 | 49:08.14 | 2:21.43 | 221114 | 231731 19 | 51:29.57 | 4:11.18 | 231732 | 250574 20 | 55:41.00 | 7:54.47 | 250575 | 286171

Трек 1

Имя файла R:\Раздача 77\Talk To Her. A Film By Pedro Almodovar - 2002\01 Sabana Santa .wav

Длина предзазора 0:00:02.00

Пиковый уровень 28.0 % Скорость извлечения 2.9 X Качество трека 100.0 % CRC теста 5042F65A CRC копии 5042F65A Точное извлечение (достоверность 7) [1D245EA2] (AR v2) Копирование... OK

Трек 2

Имя файла R:\Раздача 77\Talk To Her. A Film By Pedro Almodovar - 2002\02 Hable Con Ella , Vicente Amigo & El Pele .wav

Пиковый уровень 91.4 % Скорость извлечения 4.6 X Качество трека 100.0 % CRC теста C58D8EB3 CRC копии C58D8EB3 Точное извлечение (достоверность 7) [3E8FD348] (AR v2) Копирование... OK

Трек 3

Имя файла R:\Раздача 77\Talk To Her. A Film By Pedro Almodovar - 2002\03 Cucurrucucú Paloma , Caetana Veloso .wav

Длина предзазора 0:00:00.01

Пиковый уровень 53.0 % Скорость извлечения 3.4 X Качество трека 99.9 % CRC теста 84CF4A60 CRC копии 84CF4A60 Точное извлечение (достоверность 7) [741993F1] (AR v2) Копирование... OK

Трек 4

Имя файла R:\Раздача 77\Talk To Her. A Film By Pedro Almodovar - 2002\04 El Grito .wav

Длина предзазора 0:00:00.01

Пиковый уровень 57.6 % Скорость извлечения 5.1 X Качество трека 100.0 % CRC теста 6B456DA6 CRC копии 6B456DA6 Точное извлечение (достоверность 7) [CF958347] (AR v2) Копирование... OK

Трек 5

Имя файла R:\Раздача 77\Talk To Her. A Film By Pedro Almodovar - 2002\05 Por Toda A Minha Vida , Ellis Regina & Tom Jobin .wav

Длина предзазора 0:00:00.01

Пиковый уровень 35.6 % Скорость извлечения 4.8 X Качество трека 100.0 % CRC теста 993040AF CRC копии 993040AF Точное извлечение (достоверность 7) [6416EC01] (AR v2) Копирование... OK

Трек 6

Имя файла R:\Раздача 77\Talk To Her. A Film By Pedro Almodovar - 2002\06 La Mesita De Noche .wav

Длина предзазора 0:00:00.01

Пиковый уровень 36.9 % Скорость извлечения 4.8 X Качество трека 100.0 % CRC теста 2B040908 CRC копии 2B040908 Точное извлечение (достоверность 7) [7CDB59C4] (AR v2) Копирование... OK

Трек 7

Имя файла R:\Раздача 77\Talk To Her. A Film By Pedro Almodovar - 2002\07 Jordania .wav

Длина предзазора 0:00:00.01

Пиковый уровень 44.8 % Скорость извлечения 5.6 X Качество трека 100.0 % CRC теста B4C2C14F CRC копии B4C2C14F Точное извлечение (достоверность 7) [31F117BE] (AR v2) Копирование... OK

Трек 8

Имя файла R:\Раздача 77\Talk To Her. A Film By Pedro Almodovar - 2002\08 El Amante Menguante .wav

Длина предзазора 0:00:00.01

Пиковый уровень 91.3 % Скорость извлечения 6.8 X Качество трека 100.0 % CRC теста 09AA2696 CRC копии 09AA2696 Точное извлечение (достоверность 7) [C9D6B7EB] (AR v2) Копирование... OK

Трек 9

Имя файла R:\Раздача 77\Talk To Her. A Film By Pedro Almodovar - 2002\09 Maria Santísima De Araceli .wav

Длина предзазора 0:00:00.01

Пиковый уровень 36.1 % Скорость извлечения 5.9 X Качество трека 100.0 % CRC теста C25F750A CRC копии C25F750A Точное извлечение (достоверность 7) [B6769911] (AR v2) Копирование... OK

Трек 10

Имя файла R:\Раздача 77\Talk To Her. A Film By Pedro Almodovar - 2002\10 La Noche Y El Viento .wav

Длина предзазора 0:00:00.01

Пиковый уровень 48.0 % Скорость извлечения 5.0 X Качество трека 100.0 % CRC теста 27BB4254 CRC копии 27BB4254 Точное извлечение (достоверность 7) [8D93D79D] (AR v2) Копирование... OK

Трек 11

Имя файла R:\Раздача 77\Talk To Her. A Film By Pedro Almodovar - 2002\11 Trincheras , Decadence .wav

Длина предзазора 0:00:00.01

Пиковый уровень 62.1 % Скорость извлечения 4.7 X Качество трека 99.9 % CRC теста CE8EB766 CRC копии CE8EB766 Точное извлечение (достоверность 7) [65AE4459] (AR v2) Копирование... OK

Трек 12

Имя файла R:\Раздача 77\Talk To Her. A Film By Pedro Almodovar - 2002\12 Habitacion De Alicia .wav

Длина предзазора 0:00:00.01

Пиковый уровень 33.5 % Скорость извлечения 3.9 X Качество трека 99.9 % CRC теста 39DAB393 CRC копии 39DAB393 Точное извлечение (достоверность 7) [080141F1] (AR v2) Копирование... OK

Трек 13

Имя файла R:\Раздача 77\Talk To Her. A Film By Pedro Almodovar - 2002\13 A Portagayola .wav

Длина предзазора 0:00:00.01

Пиковый уровень 80.1 % Скорость извлечения 6.1 X Качество трека 100.0 % CRC теста A4C916B4 CRC копии A4C916B4 Точное извлечение (достоверность 7) [5170B152] (AR v2) Копирование... OK

Трек 14

Имя файла R:\Раздача 77\Talk To Her. A Film By Pedro Almodovar - 2002\14 La Discusión Viaja En Coche .wav

Длина предзазора 0:00:00.01

Пиковый уровень 88.8 % Скорость извлечения 7.3 X Качество трека 100.0 % CRC теста 400572D9 CRC копии 400572D9 Точное извлечение (достоверность 7) [EAB2DBC4] (AR v2) Копирование... OK

Трек 15

Имя файла R:\Раздача 77\Talk To Her. A Film By Pedro Almodovar - 2002\15 Alicia Vive .wav

Длина предзазора 0:00:00.01

Пиковый уровень 46.7 % Скорость извлечения 7.2 X Качество трека 100.0 % CRC теста 78AE4632 CRC копии 78AE4632 Точное извлечение (достоверность 7) [9C2CE5FF] (AR v2) Копирование... OK

Трек 16

Имя файла R:\Раздача 77\Talk To Her. A Film By Pedro Almodovar - 2002\16 Los Olivos .wav

Длина предзазора 0:00:00.01

Пиковый уровень 93.0 % Скорость извлечения 5.8 X Качество трека 100.0 % CRC теста 213DDA00 CRC копии 213DDA00 Точное извлечение (достоверность 7) [BBFEFCB4] (AR v2) Копирование... OK

Трек 17

Имя файла R:\Раздача 77\Talk To Her. A Film By Pedro Almodovar - 2002\17 Amanecer Agitado .wav

Длина предзазора 0:00:00.01

Пиковый уровень 97.7 % Скорость извлечения 4.4 X Качество трека 99.9 % CRC теста B7085F42 CRC копии B7085F42 Точное извлечение (достоверность 7) [F0BAEA12] (AR v2) Копирование... OK

Трек 18

Имя файла R:\Раздача 77\Talk To Her. A Film By Pedro Almodovar - 2002\18 Soy Marco .wav

Длина предзазора 0:00:00.01

Пиковый уровень 26.5 % Скорость извлечения 7.1 X Качество трека 100.0 % CRC теста 607FF04C CRC копии 607FF04C Точное извлечение (достоверность 7) [705A8037] (AR v2) Копирование... OK

Трек 19

Имя файла R:\Раздача 77\Talk To Her. A Film By Pedro Almodovar - 2002\19 Raquel (performed by Bau) .wav

Длина предзазора 0:00:00.01

Пиковый уровень 35.1 % Скорость извлечения 8.1 X Качество трека 100.0 % CRC теста 88F4C0F0 CRC копии 88F4C0F0 Точное извлечение (достоверность 7) [FE45D734] (AR v2) Копирование... OK

Трек 20

Имя файла R:\Раздача 77\Talk To Her. A Film By Pedro Almodovar - 2002\20 The Plaint - O Let me Weep, For Ever Weep (Henry Purcell) .wav

Длина предзазора 0:00:00.01

Пиковый уровень 65.5 % Скорость извлечения 9.0 X Качество трека 100.0 % CRC теста 41B6EDC9 CRC копии 41B6EDC9 Точное извлечение (достоверность 6) [DE38C289] (AR v2) Копирование... OK

Все треки извлечены точно

Ошибок не произошло

Конец отчёта

==== Контрольная сумма отчёта 236BD587084601E0B0F55D826E169B5DF87133CD49E9904D012A236BC473CF28 ====
REM GENRE SoundtrackREM DATE 2002REM DISCID 290EE714REM COMMENT "ExactAudioCopy v1.0b3"PERFORMER "Alberto Iglesias"TITLE "Talk To Her. (A Film By Pedro Almodovar)"FILE "01 Sabana Santa .wav" WAVE TRACK 01 AUDIO TITLE "Sabana Santa" PERFORMER "Alberto Iglesias" ISRC FRYH10202880 INDEX 01 00:00:00FILE "02 Hable Con Ella , Vicente Amigo & El Pele .wav" WAVE TRACK 02 AUDIO TITLE "Hable Con Ella / Vicente Amigo & El Pele" PERFORMER "Alberto Iglesias" ISRC FRYH10202881 INDEX 01 00:00:00 TRACK 03 AUDIO TITLE "Cucurrucucu Paloma / Caetana Veloso" PERFORMER "Alberto Iglesias" ISRC FRYH10202882 INDEX 00 05:17:59FILE "03 Cucurrucucu Paloma , Caetana Veloso .wav" WAVE INDEX 01 00:00:00 TRACK 04 AUDIO TITLE "El Grito" PERFORMER "Alberto Iglesias" ISRC FRYH10202883 INDEX 00 03:50:04FILE "04 El Grito .wav" WAVE INDEX 01 00:00:00 TRACK 05 AUDIO TITLE "Por Toda A Minha Vida / Ellis Regina & Tom Jobin" PERFORMER "Alberto Iglesias" INDEX 00 03:29:16FILE "05 Por Toda A Minha Vida , Ellis Regina & Tom Jobin .wav" WAVE INDEX 01 00:00:00 TRACK 06 AUDIO TITLE "La Mesita De Noche" PERFORMER "Alberto Iglesias" ISRC FRYH10202884 INDEX 00 02:08:12FILE "06 La Mesita De Noche .wav" WAVE INDEX 01 00:00:00 TRACK 07 AUDIO TITLE "Jordania" PERFORMER "Alberto Iglesias" ISRC FRYH10202885 INDEX 00 01:45:37FILE "07 Jordania .wav" WAVE INDEX 01 00:00:00 TRACK 08 AUDIO TITLE "El Amante Menguante" PERFORMER "Alberto Iglesias" ISRC FRYH10202886 INDEX 00 02:51:64FILE "08 El Amante Menguante .wav" WAVE INDEX 01 00:00:00 TRACK 09 AUDIO TITLE "Maria Santisima De Araceli" PERFORMER "Alberto Iglesias" ISRC FRYH10202887 INDEX 00 08:28:02FILE "09 Maria Santisima De Araceli .wav" WAVE INDEX 01 00:00:00 TRACK 10 AUDIO TITLE "La Noche Y El Viento" PERFORMER "Alberto Iglesias" ISRC FRYH10202888 INDEX 00 02:12:31FILE "10 La Noche Y El Viento .wav" WAVE INDEX 01 00:00:00 TRACK 11 AUDIO TITLE "Trincheras / Decadence" PERFORMER "Alberto Iglesias" ISRC FRYH10202889 INDEX 00 01:10:12FILE "11 Trincheras , Decadence .wav" WAVE INDEX 01 00:00:00 TRACK 12 AUDIO TITLE "Habitacion De Alicia" PERFORMER "Alberto Iglesias" ISRC FRYH10202889 INDEX 00 03:29:33FILE "12 Habitacion De Alicia .wav" WAVE INDEX 01 00:00:00 TRACK 13 AUDIO TITLE "A Portagayola" PERFORMER "Alberto Iglesias" ISRC FRYH10202891 INDEX 00 01:49:66FILE "13 A Portagayola .wav" WAVE INDEX 01 00:00:00 TRACK 14 AUDIO TITLE "La Discusion Viaja En Coche" PERFORMER "Alberto Iglesias" ISRC FRYH10202892 INDEX 00 01:48:36FILE "14 La Discusion Viaja En Coche .wav" WAVE INDEX 01 00:00:00 TRACK 15 AUDIO TITLE "Alicia Vive" PERFORMER "Alberto Iglesias" ISRC FRYH10202893 INDEX 00 03:43:66FILE "15 Alicia Vive .wav" WAVE INDEX 01 00:00:00 TRACK 16 AUDIO TITLE "Los Olivos" PERFORMER "Alberto Iglesias" ISRC FRYH10202894 INDEX 00 02:46:11FILE "16 Los Olivos .wav" WAVE INDEX 01 00:00:00 TRACK 17 AUDIO TITLE "Amanecer Agitado" PERFORMER "Alberto Iglesias" ISRC FRYH10202895 INDEX 00 01:15:21FILE "17 Amanecer Agitado .wav" WAVE INDEX 01 00:00:00 TRACK 18 AUDIO TITLE "Soy Marco" PERFORMER "Alberto Iglesias" ISRC FRYH10202896 INDEX 00 01:57:61FILE "18 Soy Marco .wav" WAVE INDEX 01 00:00:00 TRACK 19 AUDIO TITLE "Raquel (performed by Bau)" PERFORMER "Alberto Iglesias" INDEX 00 02:21:42FILE "19 Raquel (performed by Bau) .wav" WAVE INDEX 01 00:00:00 TRACK 20 AUDIO TITLE "The Plaint - O Let me Weep, For Ever Weep (Henry Purcell)" PERFORMER "Alberto Iglesias" ISRC GAU@77041022 INDEX 00 04:11:17FILE "20 The Plaint - O Let me Weep, For Ever Weep (Henry Purcell) .wav" WAVE INDEX 01 00:00:00


Трекер:  [ 15-Июл-2018 12:06 ]

  

Скачать .torrent

Размер .torrent файла 14 KB


Размер: 294 MB
Хэш (hash) релиза: 1b63691069e37e9918b93c532444100aaf9f711c

Торренты, похожие на Поговори с ней Hable Con Ella скачать торрент

Форум Название Автор Размер S L Добавлен
Саундтреки к фильмам и мультфильмам (mp3) ·· (OST) Поговори с ней / Hable Con Ella / Talk to Her (Alberto Iglesias) - 2002, MP3 (tracks), 320 kbps AqvaGen 152954847146 MB 0 0 1292266426

21:53

13-Дек-10

Еще никто не оставлял запись к записи скачать торрент Поговори с ней Hable Con Ella . Будь первым!

!Обратная связь