Скачать через торрент музыку Полная коллекция Michel Legrand, Jacques Demy LIntégrale - The Complete Edition бесплатно без регистрации torrent

Статистика раздачи
Размер:  4 GB   |    Зарегистрирован:  8 месяцев   |    .torrent скачан:  53 раза   |   
Раздают:  1  
   
загрузка...
 
Автор Сообщение

Galfimbul

avatar Galfimbul


Jacques Demy - Michel Legrand |
L'Intégrale - The Complete Edition [11 CD Box Set]
Жанр: Score
Композитор: Michel Legrand, Jacques Demy
Год выпуска диска: 2013
Страна-производитель диска:
Издатель (лейбл): Universal Music France
Номер по каталогу: 534 215 9
Аудио кодек: FLAC (*.flac)
Тип рипа: tracks+.cue
Битрейт аудио: lossless
Продолжительность: 11:44:13
Источник: Собственный рип
Наличие сканов в содержимом раздачи: да. 600 dpi, jpg, конверты и диски
Треклист:
1. Générique (instrumental) (02:10)
2. Scène du garage (02:47)
3. Devant le magasin (01:40)
4. Chez tante Elise (02:29)
5. Dans la rue (00:33)
6. Au dancing (01:55)
7. Sur le quai (01:52)
8. Dans le magasin de parapluies (05:20)
9. Chez Dubourg, le joaillier (04:08)
10. Dans le magasin (03:18)
11. Devant le garage (04:51)
12. Chez Elise (01:40)
13. A l'appartement (02:46)
14. Adieux à Elise (01:49)
15. La gare (Guy s'en va) (02:23)
16. Dans le magasin (04:48)
17. Le dîner (04:29)
18. Récit de Cassard (03:37)
19. La lettre de Guy (01:55)
20. Le carnaval (07:52)
21. Le mariage (01:01)
<div class="sp-wrap">
<div class="sp-head folded">Лог создания рипа</div>
<div class="sp-body">

Exact Audio Copy V1.3 from 2. September 2016

EAC extraction logfile from 12. July 2018, 14:53

Legrand, Michel - Demy, Jacques / Jacques Demy - Michel Legrand - L'Intégrale - The Complete Edition - CD 1 - Les Parapluis De Cherbourg (I)

Used drive : ATAPI iHBS312 2 Adapter: 1 ID: 1

Read mode : SecureUtilize accurate stream : YesDefeat audio cache : YesMake use of C2 pointers : No

Read offset correction : 6Overread into Lead-In and Lead-Out : NoFill up missing offset samples with silence : YesDelete leading and trailing silent blocks : NoNull samples used in CRC calculations : YesUsed interface : Native Win32 interface for Win NT & 2000Gap handling : Appended to previous track

Used output format : User Defined EncoderSelected bitrate : 1024 kBit/sQuality : HighAdd ID3 tag : NoCommand line compressor : C:\Program Files\Exact Audio Copy\Flac\flac.exeAdditional command line options : -V -8 -T "Genre=%genre%" -T "Artist=%artist%" -T "Title=%title%" -T "Album=%albumtitle%" -T "Date=%year%" -T "Tracknumber=%tracknr%" -T "Comment=%comment%" %source%

TOC of the extracted CD

Track | Start | Length | Start sector | End sector --------------------------------------------------------- 1 | 0:00.00 | 2:11.39 | 0 | 9863 2 | 2:11.39 | 2:48.11 | 9864 | 22474 3 | 4:59.50 | 1:41.73 | 22475 | 30122 4 | 6:41.48 | 2:30.72 | 30123 | 41444 5 | 9:12.45 | 0:34.69 | 41445 | 44063 6 | 9:47.39 | 1:56.25 | 44064 | 52788 7 | 11:43.64 | 1:53.72 | 52789 | 61335 8 | 13:37.61 | 5:21.34 | 61336 | 85444 9 | 18:59.20 | 4:09.31 | 85445 | 104150 10 | 23:08.51 | 3:19.18 | 104151 | 119093 11 | 26:27.69 | 4:52.15 | 119094 | 141008 12 | 31:20.09 | 1:41.69 | 141009 | 148652 13 | 33:02.03 | 2:47.17 | 148653 | 161194 14 | 35:49.20 | 1:50.14 | 161195 | 169458 15 | 37:39.34 | 2:27.55 | 169459 | 180538 16 | 40:07.14 | 4:49.70 | 180539 | 202283 17 | 44:57.09 | 4:30.74 | 202284 | 222607 18 | 49:28.08 | 3:38.62 | 222608 | 239019 19 | 53:06.70 | 1:56.62 | 239020 | 247781 20 | 55:03.57 | 7:53.14 | 247782 | 283270 21 | 62:56.71 | 1:02.59 | 283271 | 287979

Track 1

Filename F:\torrent\THE COMPLETE EDITION JACQUES DEMY_MICHEL LEGRAND\CD 1\score\01. Legrand, Michel - Demy, Jacques - Acte 1 - Le Départ - Novembre 1957 - Générique (Instrumental).wav

Pre-gap length 0:00:02.00

Peak level 83.6 % Extraction speed 4.8 X Track quality 100.0 % Test CRC 2B5853AB Copy CRC 2B5853AB Accurately ripped (confidence 8) [937C3682] (AR v2) Copy OK

Track 2

Filename F:\torrent\THE COMPLETE EDITION JACQUES DEMY_MICHEL LEGRAND\CD 1\score\02. Legrand, Michel - Demy, Jacques - Scène Du Garage.wav

Peak level 84.7 % Extraction speed 5.4 X Track quality 100.0 % Test CRC C6BE58B7 Copy CRC C6BE58B7 Accurately ripped (confidence 8) [313C79CA] (AR v2) Copy OK

Track 3

Filename F:\torrent\THE COMPLETE EDITION JACQUES DEMY_MICHEL LEGRAND\CD 1\score\03. Legrand, Michel - Demy, Jacques - Devant Le Magasin.wav

Peak level 81.3 % Extraction speed 5.1 X Track quality 100.0 % Test CRC 5CBC9874 Copy CRC 5CBC9874 Accurately ripped (confidence 8) [61A98CD4] (AR v2) Copy OK

Track 4

Filename F:\torrent\THE COMPLETE EDITION JACQUES DEMY_MICHEL LEGRAND\CD 1\score\04. Legrand, Michel - Demy, Jacques - Chez Tante Élise.wav

Peak level 81.3 % Extraction speed 5.8 X Track quality 100.0 % Test CRC 7D5C48D9 Copy CRC 7D5C48D9 Accurately ripped (confidence 8) [C6B749B9] (AR v2) Copy OK

Track 5

Filename F:\torrent\THE COMPLETE EDITION JACQUES DEMY_MICHEL LEGRAND\CD 1\score\05. Legrand, Michel - Demy, Jacques - Dans La Rue.wav

Peak level 81.2 % Extraction speed 3.6 X Track quality 100.0 % Test CRC F4481F57 Copy CRC F4481F57 Accurately ripped (confidence 8) [DEE90ECB] (AR v2) Copy OK

Track 6

Filename F:\torrent\THE COMPLETE EDITION JACQUES DEMY_MICHEL LEGRAND\CD 1\score\06. Legrand, Michel - Demy, Jacques - Au Dancing.wav

Peak level 81.4 % Extraction speed 5.8 X Track quality 100.0 % Test CRC 2FA77AD2 Copy CRC 2FA77AD2 Accurately ripped (confidence 8) [3586A2E5] (AR v2) Copy OK

Track 7

Filename F:\torrent\THE COMPLETE EDITION JACQUES DEMY_MICHEL LEGRAND\CD 1\score\07. Legrand, Michel - Demy, Jacques - Sur Le Quai.wav

Peak level 81.3 % Extraction speed 5.9 X Track quality 100.0 % Test CRC ED25B3E3 Copy CRC ED25B3E3 Accurately ripped (confidence 8) [EA1DA095] (AR v2) Copy OK

Track 8

Filename F:\torrent\THE COMPLETE EDITION JACQUES DEMY_MICHEL LEGRAND\CD 1\score\08. Legrand, Michel - Demy, Jacques - Dans Le Magasin De Parapluies.wav

Peak level 81.4 % Extraction speed 7.5 X Track quality 100.0 % Test CRC FF6973F1 Copy CRC FF6973F1 Accurately ripped (confidence 8) [3AE3CDC6] (AR v2) Copy OK

Track 9

Filename F:\torrent\THE COMPLETE EDITION JACQUES DEMY_MICHEL LEGRAND\CD 1\score\09. Legrand, Michel - Demy, Jacques - Chez Dubourg, Le Joaillier.wav

Peak level 81.3 % Extraction speed 7.7 X Track quality 100.0 % Test CRC A0820A6A Copy CRC A0820A6A Accurately ripped (confidence 8) [65B778FE] (AR v2) Copy OK

Track 10

Filename F:\torrent\THE COMPLETE EDITION JACQUES DEMY_MICHEL LEGRAND\CD 1\score\10. Legrand, Michel - Demy, Jacques - Dans Le Magasin.wav

Peak level 81.3 % Extraction speed 7.9 X Track quality 100.0 % Test CRC 4E360C41 Copy CRC 4E360C41 Accurately ripped (confidence 8) [408F1DE5] (AR v2) Copy OK

Track 11

Filename F:\torrent\THE COMPLETE EDITION JACQUES DEMY_MICHEL LEGRAND\CD 1\score\11. Legrand, Michel - Demy, Jacques - Devant Le Garage.wav

Peak level 81.3 % Extraction speed 8.6 X Track quality 100.0 % Test CRC 26F74617 Copy CRC 26F74617 Accurately ripped (confidence 8) [C4F6A71E] (AR v2) Copy OK

Track 12

Filename F:\torrent\THE COMPLETE EDITION JACQUES DEMY_MICHEL LEGRAND\CD 1\score\12. Legrand, Michel - Demy, Jacques - Chez Élise.wav

Peak level 81.2 % Extraction speed 5.2 X Track quality 99.8 % Test CRC 1383CF73 Copy CRC 1383CF73 Accurately ripped (confidence 8) [6D766FCE] (AR v2) Copy OK

Track 13

Filename F:\torrent\THE COMPLETE EDITION JACQUES DEMY_MICHEL LEGRAND\CD 1\score\13. Legrand, Michel - Demy, Jacques - À L'Appartement.wav

Peak level 81.2 % Extraction speed 8.4 X Track quality 100.0 % Test CRC C6785A8F Copy CRC C6785A8F Accurately ripped (confidence 8) [D12D213A] (AR v2) Copy OK

Track 14

Filename F:\torrent\THE COMPLETE EDITION JACQUES DEMY_MICHEL LEGRAND\CD 1\score\14. Legrand, Michel - Demy, Jacques - Adieux À Élise.wav

Peak level 81.2 % Extraction speed 5.6 X Track quality 99.9 % Test CRC 06765B1B Copy CRC 06765B1B Accurately ripped (confidence 8) [A447EB3C] (AR v2) Copy OK

Track 15

Filename F:\torrent\THE COMPLETE EDITION JACQUES DEMY_MICHEL LEGRAND\CD 1\score\15. Legrand, Michel - Demy, Jacques - La Gare (Guy S'En Va).wav

Peak level 81.4 % Extraction speed 6.5 X Track quality 99.9 % Test CRC F48F9C02 Copy CRC F48F9C02 Accurately ripped (confidence 8) [5F318D85] (AR v2) Copy OK

Track 16

Filename F:\torrent\THE COMPLETE EDITION JACQUES DEMY_MICHEL LEGRAND\CD 1\score\16. Legrand, Michel - Demy, Jacques - Acte 2 - L'Absence - Janvier 1958 - Dans Le Magasin.wav

Pre-gap length 0:00:03.00

Peak level 81.4 % Extraction speed 9.8 X Track quality 100.0 % Test CRC F68415D9 Copy CRC F68415D9 Accurately ripped (confidence 8) [BA62C667] (AR v2) Copy OK

Track 17

Filename F:\torrent\THE COMPLETE EDITION JACQUES DEMY_MICHEL LEGRAND\CD 1\score\17. Legrand, Michel - Demy, Jacques - Le Dîner.wav

Peak level 81.2 % Extraction speed 10.0 X Track quality 100.0 % Test CRC 9A034E0A Copy CRC 9A034E0A Accurately ripped (confidence 8) [C9A2F132] (AR v2) Copy OK

Track 18

Filename F:\torrent\THE COMPLETE EDITION JACQUES DEMY_MICHEL LEGRAND\CD 1\score\18. Legrand, Michel - Demy, Jacques - Récit De Cassard.wav

Peak level 81.2 % Extraction speed 10.0 X Track quality 100.0 % Test CRC E909D7F6 Copy CRC E909D7F6 Accurately ripped (confidence 8) [DAE83AA0] (AR v2) Copy OK

Track 19

Filename F:\torrent\THE COMPLETE EDITION JACQUES DEMY_MICHEL LEGRAND\CD 1\score\19. Legrand, Michel - Demy, Jacques - La Lettre De Guy.wav

Peak level 81.3 % Extraction speed 6.6 X Track quality 99.9 % Test CRC E207F478 Copy CRC E207F478 Accurately ripped (confidence 8) [7C0E31CA] (AR v2) Copy OK

Track 20

Filename F:\torrent\THE COMPLETE EDITION JACQUES DEMY_MICHEL LEGRAND\CD 1\score\20. Legrand, Michel - Demy, Jacques - Mars 1958 - Le Carnaval.wav

Peak level 81.3 % Extraction speed 11.4 X Track quality 100.0 % Test CRC 88DC7C0B Copy CRC 88DC7C0B Accurately ripped (confidence 8) [C3B1C72D] (AR v2) Copy OK

Track 21

Filename F:\torrent\THE COMPLETE EDITION JACQUES DEMY_MICHEL LEGRAND\CD 1\score\21. Legrand, Michel - Demy, Jacques - Le Mariage.wav

Peak level 81.2 % Extraction speed 7.6 X Track quality 100.0 % Test CRC 3D66B131 Copy CRC 3D66B131 Accurately ripped (confidence 8) [67FD4A69] (AR v2) Copy OK

All tracks accurately ripped

No errors occurred

End of status report

---- CUETools DB Plugin V2.1.6

[CTDB TOCID: h8kzBf8Q6MNeK3QTqJwmfrL2Esg-] foundSubmit result: already submittedTrack | CTDB Status 1 | (23/23) Accurately ripped 2 | (23/23) Accurately ripped 3 | (23/23) Accurately ripped 4 | (23/23) Accurately ripped 5 | (23/23) Accurately ripped 6 | (23/23) Accurately ripped 7 | (23/23) Accurately ripped 8 | (23/23) Accurately ripped 9 | (23/23) Accurately ripped 10 | (23/23) Accurately ripped 11 | (23/23) Accurately ripped 12 | (23/23) Accurately ripped 13 | (23/23) Accurately ripped 14 | (22/23) Accurately ripped 15 | (22/23) Accurately ripped 16 | (22/23) Accurately ripped 17 | (23/23) Accurately ripped 18 | (23/23) Accurately ripped 19 | (23/23) Accurately ripped 20 | (23/23) Accurately ripped 21 | (23/23) Accurately ripped

==== Log checksum 76F25DCF98CCE46C72B09B9A6673134C3A0EB5DB244A7DFC74DC615EE639783D ====
REM GENRE SoundtrackREM DATE 2013REM DISCID 320EFF15REM COMMENT "ExactAudioCopy v1.3"CATALOG 0600753421604PERFORMER "Legrand, Michel - Demy, Jacques"TITLE "Jacques Demy - Michel Legrand - L'Integrale - The Complete Edition - CD 1 - L..."REM COMPOSER ""FILE "01. Legrand, Michel - Demy, Jacques - Acte 1 - Le Depart - Novembre 1957 - Generique (Instrumental).wav" WAVE TRACK 01 AUDIO TITLE "Acte 1 - Le Depart - Novembre 1957 - Generique (Instrumental)" PERFORMER "Legrand, Michel - Demy, Jacques" REM COMPOSER "" INDEX 01 00:00:00FILE "02. Legrand, Michel - Demy, Jacques - Scene Du Garage.wav" WAVE TRACK 02 AUDIO TITLE "Scene Du Garage" PERFORMER "Legrand, Michel - Demy, Jacques" REM COMPOSER "" ISRC FR2F41300130 INDEX 01 00:00:00FILE "03. Legrand, Michel - Demy, Jacques - Devant Le Magasin.wav" WAVE TRACK 03 AUDIO TITLE "Devant Le Magasin" PERFORMER "Legrand, Michel - Demy, Jacques" REM COMPOSER "" ISRC FR2F41300140 INDEX 01 00:00:00FILE "04. Legrand, Michel - Demy, Jacques - Chez Tante Elise.wav" WAVE TRACK 04 AUDIO TITLE "Chez Tante Elise" PERFORMER "Legrand, Michel - Demy, Jacques" REM COMPOSER "" INDEX 01 00:00:00FILE "05. Legrand, Michel - Demy, Jacques - Dans La Rue.wav" WAVE TRACK 05 AUDIO TITLE "Dans La Rue" PERFORMER "Legrand, Michel - Demy, Jacques" REM COMPOSER "" INDEX 01 00:00:00FILE "06. Legrand, Michel - Demy, Jacques - Au Dancing.wav" WAVE TRACK 06 AUDIO TITLE "Au Dancing" PERFORMER "Legrand, Michel - Demy, Jacques" REM COMPOSER "" INDEX 01 00:00:00FILE "07. Legrand, Michel - Demy, Jacques - Sur Le Quai.wav" WAVE TRACK 07 AUDIO TITLE "Sur Le Quai" PERFORMER "Legrand, Michel - Demy, Jacques" REM COMPOSER "" INDEX 01 00:00:00FILE "08. Legrand, Michel - Demy, Jacques - Dans Le Magasin De Parapluies.wav" WAVE TRACK 08 AUDIO TITLE "Dans Le Magasin De Parapluies" PERFORMER "Legrand, Michel - Demy, Jacques" REM COMPOSER "" ISRC FR2F41300150 INDEX 01 00:00:00FILE "09. Legrand, Michel - Demy, Jacques - Chez Dubourg, Le Joaillier.wav" WAVE TRACK 09 AUDIO TITLE "Chez Dubourg, Le Joaillier" PERFORMER "Legrand, Michel - Demy, Jacques" REM COMPOSER "" INDEX 01 00:00:00FILE "10. Legrand, Michel - Demy, Jacques - Dans Le Magasin.wav" WAVE TRACK 10 AUDIO TITLE "Dans Le Magasin" PERFORMER "Legrand, Michel - Demy, Jacques" REM COMPOSER "" INDEX 01 00:00:00FILE "11. Legrand, Michel - Demy, Jacques - Devant Le Garage.wav" WAVE TRACK 11 AUDIO TITLE "Devant Le Garage" PERFORMER "Legrand, Michel - Demy, Jacques" REM COMPOSER "" ISRC FR2F41300160 INDEX 01 00:00:00FILE "12. Legrand, Michel - Demy, Jacques - Chez Elise.wav" WAVE TRACK 12 AUDIO TITLE "Chez Elise" PERFORMER "Legrand, Michel - Demy, Jacques" REM COMPOSER "" INDEX 01 00:00:00FILE "13. Legrand, Michel - Demy, Jacques - A L'Appartement.wav" WAVE TRACK 13 AUDIO TITLE "A L'Appartement" PERFORMER "Legrand, Michel - Demy, Jacques" REM COMPOSER "" INDEX 01 00:00:00FILE "14. Legrand, Michel - Demy, Jacques - Adieux A Elise.wav" WAVE TRACK 14 AUDIO TITLE "Adieux A Elise" PERFORMER "Legrand, Michel - Demy, Jacques" REM COMPOSER "" INDEX 01 00:00:00FILE "15. Legrand, Michel - Demy, Jacques - La Gare (Guy S'En Va).wav" WAVE TRACK 15 AUDIO TITLE "La Gare (Guy S'En Va)" PERFORMER "Legrand, Michel - Demy, Jacques" REM COMPOSER "" ISRC FR2F41300170 INDEX 01 00:00:00 TRACK 16 AUDIO TITLE "Acte 2 - L'Absence - Janvier 1958 - Dans Le Magasin" PERFORMER "Legrand, Michel - Demy, Jacques" REM COMPOSER "" ISRC FR2F41300180 INDEX 00 02:24:55FILE "16. Legrand, Michel - Demy, Jacques - Acte 2 - L'Absence - Janvier 1958 - Dans Le Magasin.wav" WAVE INDEX 01 00:00:00FILE "17. Legrand, Michel - Demy, Jacques - Le Diner.wav" WAVE TRACK 17 AUDIO TITLE "Le Diner" PERFORMER "Legrand, Michel - Demy, Jacques" REM COMPOSER "" INDEX 01 00:00:00FILE "18. Legrand, Michel - Demy, Jacques - Recit De Cassard.wav" WAVE TRACK 18 AUDIO TITLE "Recit De Cassard" PERFORMER "Legrand, Michel - Demy, Jacques" REM COMPOSER "" INDEX 01 00:00:00FILE "19. Legrand, Michel - Demy, Jacques - La Lettre De Guy.wav" WAVE TRACK 19 AUDIO TITLE "La Lettre De Guy" PERFORMER "Legrand, Michel - Demy, Jacques" REM COMPOSER "" INDEX 01 00:00:00FILE "20. Legrand, Michel - Demy, Jacques - Mars 1958 - Le Carnaval.wav" WAVE TRACK 20 AUDIO TITLE "Mars 1958 - Le Carnaval" PERFORMER "Legrand, Michel - Demy, Jacques" REM COMPOSER "" INDEX 01 00:00:00FILE "21. Legrand, Michel - Demy, Jacques - Le Mariage.wav" WAVE TRACK 21 AUDIO TITLE "Le Mariage" PERFORMER "Legrand, Michel - Demy, Jacques" REM COMPOSER "" INDEX 01 00:00:00
</div>
</div>
Треклист:
1. Retour de Guy (00:42)
2. Chez Elise (04:17)
3. Le garage (dispute) (01:55)
4. Guy au café (01:43)
5. La boîte à matelots (03:11)
6. Duo Guy / Madeleine (02:05)
7. La terrasse du café (03:06)
8. La station-service (02:01)
9. Final (04:59)
10. Roland rêve (03:20)
11. Pour Anouk (03:57)
12. Passage Pommeraye (03:43)
13. Lola rêve (02:29)
14. C'est moi, c'est Lola (00:20)
15. Chanson de Lola (02:12)
16. Prélude en ré mineur, extrait du Clavier bien tempéré
(J.S. Bach) (01:17)
17. Prélude en ut majeur, extrait du Clavier bien tempéré
(J.S. Bach) (01:44)
18. L'Eldorado (01:41)
19. Roland rêve (version 1960) (02:14)
20. Allegretto de la Symphonie No 7, en la majeur, opus 92 (Beethoven) (03:05)
21. Générique / Comédie musicale (02:51)
22. Vision d'enfer (01:32)
23. Le jeu et l'amour (02:07)
24. Une aube à Monte-Carlo (01:35)
25. La baie des anges (habanera) (01:41)
26. Jackie (03:22)
27. Le jeu (00:55)
28. Slow au petit matin (01:39)
29. Souper au Negresco (01:09)
30. Vertiges du tapis vert (01:11)
31. L'enfer de la roulette (01:10)
32. Le jeu (pour deux pianos et orchestre) (01:07)
<div class="sp-wrap">
<div class="sp-head folded">Лог создания рипа</div>
<div class="sp-body">

Exact Audio Copy V1.3 from 2. September 2016

EAC extraction logfile from 11. July 2018, 14:08

Legrand, Michel - Demy, Jacques / Jacques Demy - Michel Legrand - L'Intégrale - The Complete Edition - CD 2 - Les Parapluis De Cherbourg (II) Etc.

Used drive : ATAPI iHBS312 2 Adapter: 1 ID: 1

Read mode : SecureUtilize accurate stream : YesDefeat audio cache : YesMake use of C2 pointers : No

Read offset correction : 6Overread into Lead-In and Lead-Out : NoFill up missing offset samples with silence : YesDelete leading and trailing silent blocks : NoNull samples used in CRC calculations : YesUsed interface : Native Win32 interface for Win NT & 2000Gap handling : Appended to previous track

Used output format : User Defined EncoderSelected bitrate : 1024 kBit/sQuality : HighAdd ID3 tag : NoCommand line compressor : C:\Program Files\Exact Audio Copy\Flac\flac.exeAdditional command line options : -V -8 -T "Genre=%genre%" -T "Artist=%artist%" -T "Title=%title%" -T "Album=%albumtitle%" -T "Date=%year%" -T "Tracknumber=%tracknr%" -T "Comment=%comment%" %source%

TOC of the extracted CD

Track | Start | Length | Start sector | End sector --------------------------------------------------------- 1 | 0:00.00 | 0:43.23 | 0 | 3247 2 | 0:43.23 | 4:16.55 | 3248 | 22502 3 | 5:00.03 | 1:56.05 | 22503 | 31207 4 | 6:56.08 | 1:44.14 | 31208 | 39021 5 | 8:40.22 | 3:12.43 | 39022 | 53464 6 | 11:52.65 | 2:06.17 | 53465 | 62931 7 | 13:59.07 | 3:07.02 | 62932 | 76958 8 | 17:06.09 | 2:02.68 | 76959 | 86176 9 | 19:09.02 | 5:05.36 | 86177 | 109087 10 | 24:14.38 | 3:23.09 | 109088 | 124321 11 | 27:37.47 | 4:01.07 | 124322 | 142403 12 | 31:38.54 | 3:46.00 | 142404 | 159353 13 | 35:24.54 | 2:31.03 | 159354 | 170681 14 | 37:55.57 | 0:21.30 | 170682 | 172286 15 | 38:17.12 | 2:14.66 | 172287 | 182402 16 | 40:32.03 | 1:26.14 | 182403 | 188866 17 | 41:58.17 | 1:43.64 | 188867 | 196655 18 | 43:42.06 | 1:44.49 | 196656 | 204504 19 | 45:26.55 | 2:18.25 | 204505 | 214879 20 | 47:45.05 | 3:11.50 | 214880 | 229254 21 | 50:56.55 | 2:55.40 | 229255 | 242419 22 | 53:52.20 | 1:37.52 | 242420 | 249746 23 | 55:29.72 | 2:10.41 | 249747 | 259537 24 | 57:40.38 | 1:38.28 | 259538 | 266915 25 | 59:18.66 | 1:44.63 | 266916 | 274778 26 | 61:03.54 | 3:25.32 | 274779 | 290185 27 | 64:29.11 | 0:58.65 | 290186 | 294600 28 | 65:28.01 | 1:42.55 | 294601 | 302305 29 | 67:10.56 | 1:12.13 | 302306 | 307718 30 | 68:22.69 | 1:14.58 | 307719 | 313326 31 | 69:37.52 | 1:13.53 | 313327 | 318854 32 | 70:51.30 | 1:08.57 | 318855 | 324011

Track 1

Filename F:\torrent\THE COMPLETE EDITION JACQUES DEMY_MICHEL LEGRAND\CD 2\score\01. Legrand, Michel - Demy, Jacques - Les Parapluis De Cherbourg - Acte 3 - Le Retour - Mars 1959 - Retour De Guy.wav

Pre-gap length 0:00:02.00

Peak level 96.6 % Extraction speed 1.3 X Track quality 100.0 % Test CRC 7ACB9EC2 Copy CRC 7ACB9EC2 Accurately ripped (confidence 8) [30D28F3C] (AR v2) Copy OK

Track 2

Filename F:\torrent\THE COMPLETE EDITION JACQUES DEMY_MICHEL LEGRAND\CD 2\score\02. Legrand, Michel - Demy, Jacques - Les Parapluis De Cherbourg - Chez Élise.wav

Peak level 96.6 % Extraction speed 2.3 X Track quality 100.0 % Test CRC 81B41702 Copy CRC 81B41702 Accurately ripped (confidence 8) [8260BD87] (AR v2) Copy OK

Track 3

Filename F:\torrent\THE COMPLETE EDITION JACQUES DEMY_MICHEL LEGRAND\CD 2\score\03. Legrand, Michel - Demy, Jacques - Les Parapluis De Cherbourg - Le Garage (Dispute).wav

Peak level 96.7 % Extraction speed 2.1 X Track quality 100.0 % Test CRC 716A74FE Copy CRC 716A74FE Accurately ripped (confidence 8) [B6D98C72] (AR v2) Copy OK

Track 4

Filename F:\torrent\THE COMPLETE EDITION JACQUES DEMY_MICHEL LEGRAND\CD 2\score\04. Legrand, Michel - Demy, Jacques - Les Parapluis De Cherbourg - Guy Au Café.wav

Peak level 96.6 % Extraction speed 2.1 X Track quality 100.0 % Test CRC 48986F99 Copy CRC 48986F99 Accurately ripped (confidence 8) [E1E75178] (AR v2) Copy OK

Track 5

Filename F:\torrent\THE COMPLETE EDITION JACQUES DEMY_MICHEL LEGRAND\CD 2\score\05. Legrand, Michel - Demy, Jacques - Les Parapluis De Cherbourg - La Boîte À Matelots.wav

Peak level 96.7 % Extraction speed 1.7 X Track quality 99.9 % Test CRC 6FF3EC85 Copy CRC 6FF3EC85 Accurately ripped (confidence 8) [944515FB] (AR v2) Copy OK

Track 6

Filename F:\torrent\THE COMPLETE EDITION JACQUES DEMY_MICHEL LEGRAND\CD 2\score\06. Legrand, Michel - Demy, Jacques - Les Parapluis De Cherbourg - Duo Guy - Madeleine.wav

Peak level 82.6 % Extraction speed 2.4 X Track quality 100.0 % Test CRC 270497B8 Copy CRC 270497B8 Accurately ripped (confidence 8) [4B289015] (AR v2) Copy OK

Track 7

Filename F:\torrent\THE COMPLETE EDITION JACQUES DEMY_MICHEL LEGRAND\CD 2\score\07. Legrand, Michel - Demy, Jacques - Les Parapluis De Cherbourg - Juin 1959 - La Terrasse Du Café.wav

Peak level 96.6 % Extraction speed 2.7 X Track quality 100.0 % Test CRC 7D41ECD8 Copy CRC 7D41ECD8 Accurately ripped (confidence 8) [7098662D] (AR v2) Copy OK

Track 8

Filename F:\torrent\THE COMPLETE EDITION JACQUES DEMY_MICHEL LEGRAND\CD 2\score\08. Legrand, Michel - Demy, Jacques - Les Parapluis De Cherbourg - Décembre 1963 - La Station-Service.wav

Peak level 96.6 % Extraction speed 2.6 X Track quality 100.0 % Test CRC CC925639 Copy CRC CC925639 Accurately ripped (confidence 8) [08B2B9F9] (AR v2) Copy OK

Track 9

Filename F:\torrent\THE COMPLETE EDITION JACQUES DEMY_MICHEL LEGRAND\CD 2\score\09. Legrand, Michel - Demy, Jacques - Les Parapluis De Cherbourg - Final.wav

Peak level 96.7 % Extraction speed 3.2 X Track quality 100.0 % Test CRC DA5E9425 Copy CRC DA5E9425 Accurately ripped (confidence 8) [2B64576F] (AR v2) Copy OK

Track 10

Filename F:\torrent\THE COMPLETE EDITION JACQUES DEMY_MICHEL LEGRAND\CD 2\score\10. Legrand, Michel - Demy, Jacques - Lola - Roland Rêve.wav

Pre-gap length 0:00:05.00

Peak level 93.0 % Extraction speed 3.1 X Track quality 100.0 % Test CRC BE98629D Copy CRC BE98629D Accurately ripped (confidence 8) [0E739728] (AR v2) Copy OK

Track 11

Filename F:\torrent\THE COMPLETE EDITION JACQUES DEMY_MICHEL LEGRAND\CD 2\score\11. Legrand, Michel - Demy, Jacques - Lola - Pour Anouk.wav

Pre-gap length 0:00:02.00

Peak level 53.1 % Extraction speed 3.4 X Track quality 100.0 % Test CRC 7125A361 Copy CRC 7125A361 Accurately ripped (confidence 8) [5F3FEAE5] (AR v2) Copy OK

Track 12

Filename F:\torrent\THE COMPLETE EDITION JACQUES DEMY_MICHEL LEGRAND\CD 2\score\12. Legrand, Michel - Demy, Jacques - Lola - Passage Pommeraye.wav

Pre-gap length 0:00:03.00

Peak level 66.0 % Extraction speed 3.5 X Track quality 100.0 % Test CRC 8E2CD94B Copy CRC 8E2CD94B Accurately ripped (confidence 8) [4E60E21E] (AR v2) Copy OK

Track 13

Filename F:\torrent\THE COMPLETE EDITION JACQUES DEMY_MICHEL LEGRAND\CD 2\score\13. Legrand, Michel - Demy, Jacques - Lola - Lola Rêve.wav

Pre-gap length 0:00:02.00

Peak level 77.2 % Extraction speed 2.2 X Track quality 99.9 % Test CRC 50BC84EA Copy CRC 50BC84EA Accurately ripped (confidence 8) [6B654A2F] (AR v2) Copy OK

Track 14

Filename F:\torrent\THE COMPLETE EDITION JACQUES DEMY_MICHEL LEGRAND\CD 2\score\14. Legrand, Michel - Demy, Jacques - Lola - C'est Moi, C'Est Lola.wav

Pre-gap length 0:00:01.00

Peak level 53.1 % Extraction speed 1.5 X Track quality 100.0 % Test CRC E6BF6C03 Copy CRC E6BF6C03 Accurately ripped (confidence 8) [2B16385E] (AR v2) Copy OK

Track 15

Filename F:\torrent\THE COMPLETE EDITION JACQUES DEMY_MICHEL LEGRAND\CD 2\score\15. Legrand, Michel - Demy, Jacques - Lola - Chanson De Lola.wav

Peak level 58.5 % Extraction speed 3.3 X Track quality 100.0 % Test CRC 8859E3C9 Copy CRC 8859E3C9 Accurately ripped (confidence 8) [DFA6D4D9] (AR v2) Copy OK

Track 16

Filename F:\torrent\THE COMPLETE EDITION JACQUES DEMY_MICHEL LEGRAND\CD 2\score\16. Legrand, Michel - Demy, Jacques - Lola - Prélude En Ré Mineur.wav

Pre-gap length 0:00:02.00

Peak level 23.7 % Extraction speed 3.0 X Track quality 100.0 % Test CRC A673CB1A Copy CRC A673CB1A Accurately ripped (confidence 8) [B740D312] (AR v2) Copy OK

Track 17

Filename F:\torrent\THE COMPLETE EDITION JACQUES DEMY_MICHEL LEGRAND\CD 2\score\17. Legrand, Michel - Demy, Jacques - Lola - Prélude En Ut Mineur, Extrait Du Clavier Bien Tempéré.wav

Peak level 21.7 % Extraction speed 3.2 X Track quality 100.0 % Test CRC E280F80D Copy CRC E280F80D Accurately ripped (confidence 8) [75E08753] (AR v2) Copy OK

Track 18

Filename F:\torrent\THE COMPLETE EDITION JACQUES DEMY_MICHEL LEGRAND\CD 2\score\18. Legrand, Michel - Demy, Jacques - Lola - L'Eldorado.wav

Pre-gap length 0:00:02.00

Peak level 47.0 % Extraction speed 3.2 X Track quality 100.0 % Test CRC 40551209 Copy CRC 40551209 Accurately ripped (confidence 8) [B2088651] (AR v2) Copy OK

Track 19

Filename F:\torrent\THE COMPLETE EDITION JACQUES DEMY_MICHEL LEGRAND\CD 2\score\19. Legrand, Michel - Demy, Jacques - Lola - Roland Rêve (Version 1960).wav

Pre-gap length 0:00:02.00

Peak level 54.3 % Extraction speed 3.5 X Track quality 100.0 % Test CRC 28E2199F Copy CRC 28E2199F Accurately ripped (confidence 8) [C45F392D] (AR v2) Copy OK

Track 20

Filename F:\torrent\THE COMPLETE EDITION JACQUES DEMY_MICHEL LEGRAND\CD 2\score\20. Legrand, Michel - Demy, Jacques - Lola - Allegretto De La Symphonie N° 7 En La Majeur, Opus 92.wav

Pre-gap length 0:00:03.00

Peak level 80.9 % Extraction speed 3.9 X Track quality 100.0 % Test CRC C365D000 Copy CRC C365D000 Accurately ripped (confidence 8) [53204BE8] (AR v2) Copy OK

Track 21

Filename F:\torrent\THE COMPLETE EDITION JACQUES DEMY_MICHEL LEGRAND\CD 2\score\21. Legrand, Michel - Demy, Jacques - Les Sept Péchés Capitaux, Sketch La Luxure - Générique - Comédie Musicale.wav

Pre-gap length 0:00:05.00

Peak level 82.8 % Extraction speed 3.9 X Track quality 100.0 % Test CRC 8605DEBB Copy CRC 8605DEBB Accurately ripped (confidence 8) [18B9DC2C] (AR v2) Copy OK

Track 22

Filename F:\torrent\THE COMPLETE EDITION JACQUES DEMY_MICHEL LEGRAND\CD 2\score\22. Legrand, Michel - Demy, Jacques - Les Sept Péchés Capitaux, Sketch La Luxure - Vision D'enfer.wav

Pre-gap length 0:00:03.00

Peak level 75.4 % Extraction speed 3.3 X Track quality 100.0 % Test CRC 63F25BD4 Copy CRC 63F25BD4 Accurately ripped (confidence 8) [816CFCC3] (AR v2) Copy OK

Track 23

Filename F:\torrent\THE COMPLETE EDITION JACQUES DEMY_MICHEL LEGRAND\CD 2\score\23. Legrand, Michel - Demy, Jacques - La Baie Des Anges - Le Jeu Et L'amour.wav

Pre-gap length 0:00:02.00

Peak level 69.9 % Extraction speed 3.8 X Track quality 100.0 % Test CRC 84CA8E64 Copy CRC 84CA8E64 Accurately ripped (confidence 8) [EDEDB0D8] (AR v2) Copy OK

Track 24

Filename F:\torrent\THE COMPLETE EDITION JACQUES DEMY_MICHEL LEGRAND\CD 2\score\24. Legrand, Michel - Demy, Jacques - La Baie Des Anges - Une Aube À Monte-Carlo.wav

Pre-gap length 0:00:02.00

Peak level 63.7 % Extraction speed 3.6 X Track quality 100.0 % Test CRC 82E02791 Copy CRC 82E02791 Accurately ripped (confidence 8) [D3591676] (AR v2) Copy OK

Track 25

Filename F:\torrent\THE COMPLETE EDITION JACQUES DEMY_MICHEL LEGRAND\CD 2\score\25. Legrand, Michel - Demy, Jacques - La Baie Des Anges - La Baie Des Anges (Habañera).wav

Pre-gap length 0:00:02.00

Peak level 42.0 % Extraction speed 3.7 X Track quality 100.0 % Test CRC C5E7616B Copy CRC C5E7616B Accurately ripped (confidence 8) [1CBDE27D] (AR v2) Copy OK

Track 26

Filename F:\torrent\THE COMPLETE EDITION JACQUES DEMY_MICHEL LEGRAND\CD 2\score\26. Legrand, Michel - Demy, Jacques - La Baie Des Anges - Jackie.wav

Pre-gap length 0:00:02.00

Peak level 56.4 % Extraction speed 4.3 X Track quality 100.0 % Test CRC F5FC02CF Copy CRC F5FC02CF Accurately ripped (confidence 8) [0C851E1B] (AR v2) Copy OK

Track 27

Filename F:\torrent\THE COMPLETE EDITION JACQUES DEMY_MICHEL LEGRAND\CD 2\score\27. Legrand, Michel - Demy, Jacques - La Baie Des Anges - Le Jeu.wav

Pre-gap length 0:00:02.00

Peak level 64.1 % Extraction speed 3.1 X Track quality 100.0 % Test CRC DE704390 Copy CRC DE704390 Accurately ripped (confidence 8) [47078E79] (AR v2) Copy OK

Track 28

Filename F:\torrent\THE COMPLETE EDITION JACQUES DEMY_MICHEL LEGRAND\CD 2\score\28. Legrand, Michel - Demy, Jacques - La Baie Des Anges - Slow Au Petit Matin.wav

Pre-gap length 0:00:02.00

Peak level 49.8 % Extraction speed 3.8 X Track quality 100.0 % Test CRC 913FBCFB Copy CRC 913FBCFB Accurately ripped (confidence 8) [B767EC2D] (AR v2) Copy OK

Track 29

Filename F:\torrent\THE COMPLETE EDITION JACQUES DEMY_MICHEL LEGRAND\CD 2\score\29. Legrand, Michel - Demy, Jacques - La Baie Des Anges - Souper En Negresco.wav

Pre-gap length 0:00:02.00

Peak level 67.8 % Extraction speed 3.4 X Track quality 100.0 % Test CRC CBD20D4E Copy CRC CBD20D4E Accurately ripped (confidence 8) [26ACF6C6] (AR v2) Copy OK

Track 30

Filename F:\torrent\THE COMPLETE EDITION JACQUES DEMY_MICHEL LEGRAND\CD 2\score\30. Legrand, Michel - Demy, Jacques - La Baie Des Anges - Vertiges Du Tapis Vert.wav

Pre-gap length 0:00:02.00

Peak level 57.0 % Extraction speed 3.5 X Track quality 100.0 % Test CRC CA587837 Copy CRC CA587837 Accurately ripped (confidence 8) [4AB40B9A] (AR v2) Copy OK

Track 31

Filename F:\torrent\THE COMPLETE EDITION JACQUES DEMY_MICHEL LEGRAND\CD 2\score\31. Legrand, Michel - Demy, Jacques - La Baie Des Anges - L'enfer De La Roulette.wav

Pre-gap length 0:00:02.00

Peak level 66.4 % Extraction speed 1.8 X Track quality 99.8 % Test CRC F76C866E Copy CRC F76C866E Accurately ripped (confidence 8) [9291DDA5] (AR v2) Copy OK

Track 32

Filename F:\torrent\THE COMPLETE EDITION JACQUES DEMY_MICHEL LEGRAND\CD 2\score\32. Legrand, Michel - Demy, Jacques - La Baie Des Anges - Le Jeu (Pour Deux Pianos Et Orchestre).wav

Pre-gap length 0:00:02.00

Peak level 67.3 % Extraction speed 3.3 X Track quality 100.0 % Test CRC FD239052 Copy CRC FD239052 Accurately ripped (confidence 8) [CC4FEBC6] (AR v2) Copy OK

All tracks accurately ripped

No errors occurred

End of status report

---- CUETools DB Plugin V2.1.6

[CTDB TOCID: 73zaIUYUQpEW87hIRzdt4ues7PM-] foundSubmit result: 73zaIUYUQpEW87hIRzdt4ues7PM- has been confirmedTrack | CTDB Status 1 | (18/18) Accurately ripped 2 | (18/18) Accurately ripped 3 | (18/18) Accurately ripped 4 | (18/18) Accurately ripped 5 | (18/18) Accurately ripped 6 | (18/18) Accurately ripped 7 | (18/18) Accurately ripped 8 | (18/18) Accurately ripped 9 | (17/18) Accurately ripped 10 | (18/18) Accurately ripped 11 | (18/18) Accurately ripped 12 | (18/18) Accurately ripped 13 | (17/18) Accurately ripped 14 | (18/18) Accurately ripped 15 | (18/18) Accurately ripped 16 | (17/18) Accurately ripped 17 | (18/18) Accurately ripped 18 | (17/18) Accurately ripped 19 | (17/18) Accurately ripped 20 | (17/18) Accurately ripped 21 | (18/18) Accurately ripped 22 | (18/18) Accurately ripped 23 | (18/18) Accurately ripped 24 | (18/18) Accurately ripped 25 | (18/18) Accurately ripped 26 | (18/18) Accurately ripped 27 | (17/18) Accurately ripped 28 | (18/18) Accurately ripped 29 | (18/18) Accurately ripped 30 | (18/18) Accurately ripped 31 | (18/18) Accurately ripped 32 | (18/18) Accurately ripped

==== Log checksum 1A2646A27A13E857610F37E59608F61A907D67146E36C01C43B7245FC3CC55E1 ====
REM GENRE SoundtrackREM DATE 2013REM DISCID B110E020REM COMMENT "ExactAudioCopy v1.3"CATALOG 0600753421611PERFORMER "Legrand, Michel - Demy, Jacques"TITLE "Jacques Demy - Michel Legrand - L'Integrale - The Complete Edition - CD 2 - L..."REM COMPOSER ""FILE "01. Legrand, Michel - Demy, Jacques - Les Parapluis De Cherbourg - Acte 3 - Le Retour - Mars 1959 - Retour De Guy.wav" WAVE TRACK 01 AUDIO TITLE "Les Parapluis De Cherbourg - Acte 3 - Le Retour - Mars 1959 - Retour De Guy" PERFORMER "Legrand, Michel - Demy, Jacques" REM COMPOSER "" INDEX 01 00:00:00FILE "02. Legrand, Michel - Demy, Jacques - Les Parapluis De Cherbourg - Chez Elise.wav" WAVE TRACK 02 AUDIO TITLE "Les Parapluis De Cherbourg - Chez Elise" PERFORMER "Legrand, Michel - Demy, Jacques" REM COMPOSER "" ISRC FR2F41300190 INDEX 01 00:00:00FILE "03. Legrand, Michel - Demy, Jacques - Les Parapluis De Cherbourg - Le Garage (Dispute).wav" WAVE TRACK 03 AUDIO TITLE "Les Parapluis De Cherbourg - Le Garage (Dispute)" PERFORMER "Legrand, Michel - Demy, Jacques" REM COMPOSER "" ISRC FR2F41300200 INDEX 01 00:00:00FILE "04. Legrand, Michel - Demy, Jacques - Les Parapluis De Cherbourg - Guy Au Cafe.wav" WAVE TRACK 04 AUDIO TITLE "Les Parapluis De Cherbourg - Guy Au Cafe" PERFORMER "Legrand, Michel - Demy, Jacques" REM COMPOSER "" ISRC FR2F41300210 INDEX 01 00:00:00FILE "05. Legrand, Michel - Demy, Jacques - Les Parapluis De Cherbourg - La Boite A Matelots.wav" WAVE TRACK 05 AUDIO TITLE "Les Parapluis De Cherbourg - La Boite A Matelots" PERFORMER "Legrand, Michel - Demy, Jacques" REM COMPOSER "" INDEX 01 00:00:00FILE "06. Legrand, Michel - Demy, Jacques - Les Parapluis De Cherbourg - Duo Guy - Madeleine.wav" WAVE TRACK 06 AUDIO TITLE "Les Parapluis De Cherbourg - Duo Guy - Madeleine" PERFORMER "Legrand, Michel - Demy, Jacques" REM COMPOSER "" INDEX 01 00:00:00FILE "07. Legrand, Michel - Demy, Jacques - Les Parapluis De Cherbourg - Juin 1959 - La Terrasse Du Cafe.wav" WAVE TRACK 07 AUDIO TITLE "Les Parapluis De Cherbourg - Juin 1959 - La Terrasse Du Cafe" PERFORMER "Legrand, Michel - Demy, Jacques" REM COMPOSER "" ISRC FR2F41300220 INDEX 01 00:00:00FILE "08. Legrand, Michel - Demy, Jacques - Les Parapluis De Cherbourg - Decembre 1963 - La Station-Service.wav" WAVE TRACK 08 AUDIO TITLE "Les Parapluis De Cherbourg - Decembre 1963 - La Station-Service" PERFORMER "Legrand, Michel - Demy, Jacques" REM COMPOSER "" ISRC FR2F41300230 INDEX 01 00:00:00FILE "09. Legrand, Michel - Demy, Jacques - Les Parapluis De Cherbourg - Final.wav" WAVE TRACK 09 AUDIO TITLE "Les Parapluis De Cherbourg - Final" PERFORMER "Legrand, Michel - Demy, Jacques" REM COMPOSER "" INDEX 01 00:00:00 TRACK 10 AUDIO TITLE "Lola - Roland Reve" PERFORMER "Legrand, Michel - Demy, Jacques" REM COMPOSER "" INDEX 00 05:00:36FILE "10. Legrand, Michel - Demy, Jacques - Lola - Roland Reve.wav" WAVE INDEX 01 00:00:00 TRACK 11 AUDIO TITLE "Lola - Pour Anouk" PERFORMER "Legrand, Michel - Demy, Jacques" REM COMPOSER "" INDEX 00 03:21:09FILE "11. Legrand, Michel - Demy, Jacques - Lola - Pour Anouk.wav" WAVE INDEX 01 00:00:00 TRACK 12 AUDIO TITLE "Lola - Passage Pommeraye" PERFORMER "Legrand, Michel - Demy, Jacques" REM COMPOSER "" INDEX 00 03:58:07FILE "12. Legrand, Michel - Demy, Jacques - Lola - Passage Pommeraye.wav" WAVE INDEX 01 00:00:00 TRACK 13 AUDIO TITLE "Lola - Lola Reve" PERFORMER "Legrand, Michel - Demy, Jacques" REM COMPOSER "" INDEX 00 03:44:00FILE "13. Legrand, Michel - Demy, Jacques - Lola - Lola Reve.wav" WAVE INDEX 01 00:00:00 TRACK 14 AUDIO TITLE "Lola - C'est Moi, C'Est Lola" PERFORMER "Legrand, Michel - Demy, Jacques" REM COMPOSER "" ISRC FRUM71300252 INDEX 00 02:30:03FILE "14. Legrand, Michel - Demy, Jacques - Lola - C'est Moi, C'Est Lola.wav" WAVE INDEX 01 00:00:00FILE "15. Legrand, Michel - Demy, Jacques - Lola - Chanson De Lola.wav" WAVE TRACK 15 AUDIO TITLE "Lola - Chanson De Lola" PERFORMER "Legrand, Michel - Demy, Jacques" REM COMPOSER "" ISRC CH1956080000 INDEX 01 00:00:00 TRACK 16 AUDIO TITLE "Lola - Prelude En Re Mineur" PERFORMER "Legrand, Michel - Demy, Jacques" REM COMPOSER "" ISRC DEF055930835 INDEX 00 02:12:66FILE "16. Legrand, Michel - Demy, Jacques - Lola - Prelude En Re Mineur.wav" WAVE INDEX 01 00:00:00FILE "17. Legrand, Michel - Demy, Jacques - Lola - Prelude En Ut Mineur, Extrait Du Clavier Bien Tempere.wav" WAVE TRACK 17 AUDIO TITLE "Lola - Prelude En Ut Mineur, Extrait Du Clavier Bien Tempere" PERFORMER "Legrand, Michel - Demy, Jacques" REM COMPOSER "" ISRC DEF055930825 INDEX 01 00:00:00 TRACK 18 AUDIO TITLE "Lola - L'Eldorado" PERFORMER "Legrand, Michel - Demy, Jacques" REM COMPOSER "" ISRC CH1956080190 INDEX 00 01:41:64FILE "18. Legrand, Michel - Demy, Jacques - Lola - L'Eldorado.wav" WAVE INDEX 01 00:00:00 TRACK 19 AUDIO TITLE "Lola - Roland Reve (Version 1960)" PERFORMER "Legrand, Michel - Demy, Jacques" REM COMPOSER "" ISRC CH1956080010 INDEX 00 01:42:49FILE "19. Legrand, Michel - Demy, Jacques - Lola - Roland Reve (Version 1960).wav" WAVE INDEX 01 00:00:00 TRACK 20 AUDIO TITLE "Lola - Allegretto De La Symphonie N° 7 En La Majeur, Opus 92" PERFORMER "Legrand, Michel - Demy, Jacques" REM COMPOSER "" ISRC FRUM71300253 INDEX 00 02:15:25FILE "20. Legrand, Michel - Demy, Jacques - Lola - Allegretto De La Symphonie N° 7 En La Majeur, Opus 92.wav" WAVE INDEX 01 00:00:00 TRACK 21 AUDIO TITLE "Les Sept Peches Capitaux, Sketch La Luxure - Generique - Comedie Musicale" PERFORMER "Legrand, Michel - Demy, Jacques" REM COMPOSER "" ISRC FR2F41300240 INDEX 00 03:06:50FILE "21. Legrand, Michel - Demy, Jacques - Les Sept Peches Capitaux, Sketch La Luxure - Generique - Comedie Musicale.wav" WAVE INDEX 01 00:00:00 TRACK 22 AUDIO TITLE "Les Sept Peches Capitaux, Sketch La Luxure - Vision D'enfer" PERFORMER "Legrand, Michel - Demy, Jacques" REM COMPOSER "" ISRC FR2F41300250 INDEX 00 02:52:40FILE "22. Legrand, Michel - Demy, Jacques - Les Sept Peches Capitaux, Sketch La Luxure - Vision D'enfer.wav" WAVE INDEX 01 00:00:00 TRACK 23 AUDIO TITLE "La Baie Des Anges - Le Jeu Et L'amour" PERFORMER "Legrand, Michel - Demy, Jacques" REM COMPOSER "" ISRC FR2F41300260 INDEX 00 01:35:52FILE "23. Legrand, Michel - Demy, Jacques - La Baie Des Anges - Le Jeu Et L'amour.wav" WAVE INDEX 01 00:00:00 TRACK 24 AUDIO TITLE "La Baie Des Anges - Une Aube A Monte-Carlo" PERFORMER "Legrand, Michel - Demy, Jacques" REM COMPOSER "" INDEX 00 02:08:41FILE "24. Legrand, Michel - Demy, Jacques - La Baie Des Anges - Une Aube A Monte-Carlo.wav" WAVE INDEX 01 00:00:00 TRACK 25 AUDIO TITLE "La Baie Des Anges - La Baie Des Anges (Habanera)" PERFORMER "Legrand, Michel - Demy, Jacques" REM COMPOSER "" INDEX 00 01:36:28FILE "25. Legrand, Michel - Demy, Jacques - La Baie Des Anges - La Baie Des Anges (Habanera).wav" WAVE INDEX 01 00:00:00 TRACK 26 AUDIO TITLE "La Baie Des Anges - Jackie" PERFORMER "Legrand, Michel - Demy, Jacques" REM COMPOSER "" ISRC FR2F41300270 INDEX 00 01:42:63FILE "26. Legrand, Michel - Demy, Jacques - La Baie Des Anges - Jackie.wav" WAVE INDEX 01 00:00:00 TRACK 27 AUDIO TITLE "La Baie Des Anges - Le Jeu" PERFORMER "Legrand, Michel - Demy, Jacques" REM COMPOSER "" ISRC FR2F41300280 INDEX 00 03:23:32FILE "27. Legrand, Michel - Demy, Jacques - La Baie Des Anges - Le Jeu.wav" WAVE INDEX 01 00:00:00 TRACK 28 AUDIO TITLE "La Baie Des Anges - Slow Au Petit Matin" PERFORMER "Legrand, Michel - Demy, Jacques" REM COMPOSER "" ISRC FR2F41300290 INDEX 00 00:56:65FILE "28. Legrand, Michel - Demy, Jacques - La Baie Des Anges - Slow Au Petit Matin.wav" WAVE INDEX 01 00:00:00 TRACK 29 AUDIO TITLE "La Baie Des Anges - Souper En Negresco" PERFORMER "Legrand, Michel - Demy, Jacques" REM COMPOSER "" INDEX 00 01:40:55FILE "29. Legrand, Michel - Demy, Jacques - La Baie Des Anges - Souper En Negresco.wav" WAVE INDEX 01 00:00:00 TRACK 30 AUDIO TITLE "La Baie Des Anges - Vertiges Du Tapis Vert" PERFORMER "Legrand, Michel - Demy, Jacques" REM COMPOSER "" ISRC FR2F41300300 INDEX 00 01:10:13FILE "30. Legrand, Michel - Demy, Jacques - La Baie Des Anges - Vertiges Du Tapis Vert.wav" WAVE INDEX 01 00:00:00 TRACK 31 AUDIO TITLE "La Baie Des Anges - L'enfer De La Roulette" PERFORMER "Legrand, Michel - Demy, Jacques" REM COMPOSER "" ISRC FR2F41300310 INDEX 00 01:12:58FILE "31. Legrand, Michel - Demy, Jacques - La Baie Des Anges - L'enfer De La Roulette.wav" WAVE INDEX 01 00:00:00 TRACK 32 AUDIO TITLE "La Baie Des Anges - Le Jeu (Pour Deux Pianos Et Orchestre)" PERFORMER "Legrand, Michel - Demy, Jacques" REM COMPOSER "" INDEX 00 01:11:53FILE "32. Legrand, Michel - Demy, Jacques - La Baie Des Anges - Le Jeu (Pour Deux Pianos Et Orchestre).wav" WAVE INDEX 01 00:00:00
</div>
</div>
Треклист:
1. Le pont transbordeur (ballet générique) (02:27)
2. Arrivée des camionneurs (04:20)
3. Chanson des jumelles (03:56)
4. Chanson de Maxence (03:54)
5. De Delphine à Lancien (04:48)
6. Nous voyageons de ville en ville (02:50)
7. Chanson de Delphine (02:31)
8. Chanson de Simon (02:50)
9. Marins, amis, amants ou maris (03:55)
10. Andy amoureux (03:59)
11. Chanson d'Yvonne (02:27)
12. Chanson de Maxence (01:39)
13. Chanson de Solange (02:36)
14. De Hambourg à Rochefort (05:48)
15. La femme coupée en morceaux (02:36)
<div class="sp-wrap">
<div class="sp-head folded">Лог создания рипа</div>
<div class="sp-body">

Exact Audio Copy V1.3 from 2. September 2016

EAC extraction logfile from 12. July 2018, 16:47

Legrand, Michel - Demy, Jacques / Jacques Demy - Michel Legrand - L'Intégrale - The Complete Edition - CD 3 - Les Demoiselles De Rochefort (I)

Used drive : ATAPI iHBS312 2 Adapter: 1 ID: 1

Read mode : SecureUtilize accurate stream : YesDefeat audio cache : YesMake use of C2 pointers : No

Read offset correction : 6Overread into Lead-In and Lead-Out : NoFill up missing offset samples with silence : YesDelete leading and trailing silent blocks : NoNull samples used in CRC calculations : YesUsed interface : Native Win32 interface for Win NT & 2000Gap handling : Appended to previous track

Used output format : User Defined EncoderSelected bitrate : 1024 kBit/sQuality : HighAdd ID3 tag : NoCommand line compressor : C:\Program Files\Exact Audio Copy\Flac\flac.exeAdditional command line options : -V -8 -T "Genre=%genre%" -T "Artist=%artist%" -T "Title=%title%" -T "Album=%albumtitle%" -T "Date=%year%" -T "Tracknumber=%tracknr%" -T "Comment=%comment%" %source%

TOC of the extracted CD

Track | Start | Length | Start sector | End sector --------------------------------------------------------- 1 | 0:00.00 | 2:29.20 | 0 | 11194 2 | 2:29.20 | 4:23.20 | 11195 | 30939 3 | 6:52.40 | 3:56.11 | 30940 | 48650 4 | 10:48.51 | 3:54.08 | 48651 | 66208 5 | 14:42.59 | 4:46.13 | 66209 | 87671 6 | 19:28.72 | 2:52.05 | 87672 | 100576 7 | 22:21.02 | 2:33.17 | 100577 | 112068 8 | 24:54.19 | 2:50.19 | 112069 | 124837 9 | 27:44.38 | 3:56.29 | 124838 | 142566 10 | 31:40.67 | 4:00.27 | 142567 | 160593 11 | 35:41.19 | 2:28.28 | 160594 | 171721 12 | 38:09.47 | 1:40.27 | 171722 | 179248 13 | 39:49.74 | 2:35.67 | 179249 | 190940 14 | 42:25.66 | 5:47.52 | 190941 | 217017 15 | 48:13.43 | 2:36.55 | 217018 | 228772

Track 1

Filename F:\torrent\THE COMPLETE EDITION JACQUES DEMY_MICHEL LEGRAND\CD 3\score\01. Legrand, Michel - Demy, Jacques - Le Pont Transbordeur (Ballet Générique).wav

Pre-gap length 0:00:02.00

Peak level 72.2 % Extraction speed 4.8 X Track quality 100.0 % Test CRC 65E942A4 Copy CRC 65E942A4 Accurately ripped (confidence 10) [BB612AC6] (AR v2) Copy OK

Track 2

Filename F:\torrent\THE COMPLETE EDITION JACQUES DEMY_MICHEL LEGRAND\CD 3\score\02. Legrand, Michel - Demy, Jacques - Arrivee Des Camionneurs.wav

Pre-gap length 0:00:01.19

Peak level 86.9 % Extraction speed 5.0 X Track quality 99.9 % Test CRC B50F6A3F Copy CRC B50F6A3F Accurately ripped (confidence 10) [53F37347] (AR v2) Copy OK

Track 3

Filename F:\torrent\THE COMPLETE EDITION JACQUES DEMY_MICHEL LEGRAND\CD 3\score\03. Legrand, Michel - Demy, Jacques - Chanson Des Jumelles.wav

Peak level 87.8 % Extraction speed 6.3 X Track quality 100.0 % Test CRC F25348E6 Copy CRC F25348E6 Accurately ripped (confidence 10) [19AB65A8] (AR v2) Copy OK

Track 4

Filename F:\torrent\THE COMPLETE EDITION JACQUES DEMY_MICHEL LEGRAND\CD 3\score\04. Legrand, Michel - Demy, Jacques - Chanson De Maxence.wav

Peak level 74.9 % Extraction speed 6.8 X Track quality 100.0 % Test CRC F612B42E Copy CRC F612B42E Accurately ripped (confidence 10) [C2993ABB] (AR v2) Copy OK

Track 5

Filename F:\torrent\THE COMPLETE EDITION JACQUES DEMY_MICHEL LEGRAND\CD 3\score\05. Legrand, Michel - Demy, Jacques - De Delphine A Lancien.wav

Peak level 78.4 % Extraction speed 6.4 X Track quality 99.9 % Test CRC F03C0EF7 Copy CRC F03C0EF7 Accurately ripped (confidence 10) [AFFE9B38] (AR v2) Copy OK

Track 6

Filename F:\torrent\THE COMPLETE EDITION JACQUES DEMY_MICHEL LEGRAND\CD 3\score\06. Legrand, Michel - Demy, Jacques - Nous Voyageons De Ville En Ville.wav

Peak level 85.8 % Extraction speed 7.3 X Track quality 100.0 % Test CRC 47218FA6 Copy CRC 47218FA6 Accurately ripped (confidence 10) [CB12FDC5] (AR v2) Copy OK

Track 7

Filename F:\torrent\THE COMPLETE EDITION JACQUES DEMY_MICHEL LEGRAND\CD 3\score\07. Legrand, Michel - Demy, Jacques - Chanson De Delphine.wav

Peak level 87.8 % Extraction speed 7.3 X Track quality 100.0 % Test CRC E2D9D8E7 Copy CRC E2D9D8E7 Accurately ripped (confidence 10) [5DD7C93C] (AR v2) Copy OK

Track 8

Filename F:\torrent\THE COMPLETE EDITION JACQUES DEMY_MICHEL LEGRAND\CD 3\score\08. Legrand, Michel - Demy, Jacques - Chanson De Simon.wav

Peak level 73.7 % Extraction speed 7.7 X Track quality 100.0 % Test CRC F4E83FC6 Copy CRC F4E83FC6 Accurately ripped (confidence 10) [7C9D4FC4] (AR v2) Copy OK

Track 9

Filename F:\torrent\THE COMPLETE EDITION JACQUES DEMY_MICHEL LEGRAND\CD 3\score\09. Legrand, Michel - Demy, Jacques - Marins, Amis, Amants Ou Maris.wav

Peak level 77.9 % Extraction speed 7.0 X Track quality 99.9 % Test CRC 23E3F66D Copy CRC 23E3F66D Accurately ripped (confidence 10) [C3B48E61] (AR v2) Copy OK

Track 10

Filename F:\torrent\THE COMPLETE EDITION JACQUES DEMY_MICHEL LEGRAND\CD 3\score\10. Legrand, Michel - Demy, Jacques - Andy Amoureux.wav

Peak level 87.7 % Extraction speed 7.2 X Track quality 99.9 % Test CRC 2FAC553E Copy CRC 2FAC553E Accurately ripped (confidence 10) [14A9B1F3] (AR v2) Copy OK

Track 11

Filename F:\torrent\THE COMPLETE EDITION JACQUES DEMY_MICHEL LEGRAND\CD 3\score\11. Legrand, Michel - Demy, Jacques - Chanson D'Yvonne.wav

Pre-gap length 0:00:01.04

Peak level 81.5 % Extraction speed 6.4 X Track quality 99.9 % Test CRC C5E7D3A9 Copy CRC C5E7D3A9 Accurately ripped (confidence 10) [3C6F5D0C] (AR v2) Copy OK

Track 12

Filename F:\torrent\THE COMPLETE EDITION JACQUES DEMY_MICHEL LEGRAND\CD 3\score\12. Legrand, Michel - Demy, Jacques - Chanson De Maxence (Reprise).wav

Pre-gap length 0:00:01.29

Peak level 76.2 % Extraction speed 7.7 X Track quality 100.0 % Test CRC 6926E5C1 Copy CRC 6926E5C1 Accurately ripped (confidence 10) [15028F63] (AR v2) Copy OK

Track 13

Filename F:\torrent\THE COMPLETE EDITION JACQUES DEMY_MICHEL LEGRAND\CD 3\score\13. Legrand, Michel - Demy, Jacques - Chanson De Solange.wav

Pre-gap length 0:00:01.14

Peak level 77.8 % Extraction speed 8.7 X Track quality 100.0 % Test CRC 8CCC5AC4 Copy CRC 8CCC5AC4 Accurately ripped (confidence 10) [05C87067] (AR v2) Copy OK

Track 14

Filename F:\torrent\THE COMPLETE EDITION JACQUES DEMY_MICHEL LEGRAND\CD 3\score\14. Legrand, Michel - Demy, Jacques - De Hambourg A Rochefort.wav

Peak level 85.2 % Extraction speed 10.1 X Track quality 100.0 % Test CRC 64D37AFC Copy CRC 64D37AFC Accurately ripped (confidence 10) [3F8DCDFC] (AR v2) Copy OK

Track 15

Filename F:\torrent\THE COMPLETE EDITION JACQUES DEMY_MICHEL LEGRAND\CD 3\score\15. Legrand, Michel - Demy, Jacques - La Femme Coupee En Morceaux.wav

Peak level 77.9 % Extraction speed 7.1 X Track quality 99.9 % Test CRC 9F76F9BC Copy CRC 9F76F9BC Accurately ripped (confidence 10) [02551C2D] (AR v2) Copy OK

All tracks accurately ripped

No errors occurred

End of status report

---- CUETools DB Plugin V2.1.6

[CTDB TOCID: DlkKKW6uF_wCAltrVkzshYIGA.E-] foundSubmit result: already submittedTrack | CTDB Status 1 | (19/20) Accurately ripped 2 | (20/20) Accurately ripped 3 | (19/20) Accurately ripped 4 | (18/20) Accurately ripped 5 | (19/20) Accurately ripped 6 | (20/20) Accurately ripped 7 | (19/20) Accurately ripped 8 | (20/20) Accurately ripped 9 | (19/20) Accurately ripped 10 | (20/20) Accurately ripped 11 | (19/20) Accurately ripped 12 | (19/20) Accurately ripped 13 | (19/20) Accurately ripped 14 | (19/20) Accurately ripped 15 | (19/20) Accurately ripped

==== Log checksum 18F3B6BBEA804EB18EAB8444AB6C4E08CD7D8BEE5C2C9228B5C6F1499F533060 ====
REM GENRE SoundtrackREM DATE 2013REM DISCID C90BEA0FREM COMMENT "ExactAudioCopy v1.3"CATALOG 0600753421628PERFORMER "Legrand, Michel - Demy, Jacques"TITLE "Jacques Demy - Michel Legrand - L'Integrale - The Complete Edition - CD 3 - L..."REM COMPOSER ""FILE "01. Legrand, Michel - Demy, Jacques - Le Pont Transbordeur (Ballet Generique).wav" WAVE TRACK 01 AUDIO TITLE "Le Pont Transbordeur (Ballet Generique)" PERFORMER "Legrand, Michel - Demy, Jacques" REM COMPOSER "" ISRC FRZ036704490 INDEX 01 00:00:00 TRACK 02 AUDIO TITLE "Arrivee Des Camionneurs" PERFORMER "Legrand, Michel - Demy, Jacques" REM COMPOSER "" ISRC FRZ036704640 INDEX 00 02:28:01FILE "02. Legrand, Michel - Demy, Jacques - Arrivee Des Camionneurs.wav" WAVE INDEX 01 00:00:00FILE "03. Legrand, Michel - Demy, Jacques - Chanson Des Jumelles.wav" WAVE TRACK 03 AUDIO TITLE "Chanson Des Jumelles" PERFORMER "Legrand, Michel - Demy, Jacques" REM COMPOSER "" ISRC FRZ036704650 INDEX 01 00:00:00FILE "04. Legrand, Michel - Demy, Jacques - Chanson De Maxence.wav" WAVE TRACK 04 AUDIO TITLE "Chanson De Maxence" PERFORMER "Legrand, Michel - Demy, Jacques" REM COMPOSER "" ISRC FRZ036704660 INDEX 01 00:00:00FILE "05. Legrand, Michel - Demy, Jacques - De Delphine A Lancien.wav" WAVE TRACK 05 AUDIO TITLE "De Delphine A Lancien" PERFORMER "Legrand, Michel - Demy, Jacques" REM COMPOSER "" ISRC FRZ036704670 INDEX 01 00:00:00FILE "06. Legrand, Michel - Demy, Jacques - Nous Voyageons De Ville En Ville.wav" WAVE TRACK 06 AUDIO TITLE "Nous Voyageons De Ville En Ville" PERFORMER "Legrand, Michel - Demy, Jacques" REM COMPOSER "" ISRC FRZ036704450 INDEX 01 00:00:00FILE "07. Legrand, Michel - Demy, Jacques - Chanson De Delphine.wav" WAVE TRACK 07 AUDIO TITLE "Chanson De Delphine" PERFORMER "Legrand, Michel - Demy, Jacques" REM COMPOSER "" ISRC FRZ036704690 INDEX 01 00:00:00FILE "08. Legrand, Michel - Demy, Jacques - Chanson De Simon.wav" WAVE TRACK 08 AUDIO TITLE "Chanson De Simon" PERFORMER "Legrand, Michel - Demy, Jacques" REM COMPOSER "" ISRC FRZ036704700 INDEX 01 00:00:00FILE "09. Legrand, Michel - Demy, Jacques - Marins, Amis, Amants Ou Maris.wav" WAVE TRACK 09 AUDIO TITLE "Marins, Amis, Amants Ou Maris" PERFORMER "Legrand, Michel - Demy, Jacques" REM COMPOSER "" ISRC FRZ036704710 INDEX 01 00:00:00FILE "10. Legrand, Michel - Demy, Jacques - Andy Amoureux.wav" WAVE TRACK 10 AUDIO TITLE "Andy Amoureux" PERFORMER "Legrand, Michel - Demy, Jacques" REM COMPOSER "" ISRC FRZ036704500 INDEX 01 00:00:00 TRACK 11 AUDIO TITLE "Chanson D'Yvonne" PERFORMER "Legrand, Michel - Demy, Jacques" REM COMPOSER "" ISRC FRZ036704720 INDEX 00 03:59:23FILE "11. Legrand, Michel - Demy, Jacques - Chanson D'Yvonne.wav" WAVE INDEX 01 00:00:00 TRACK 12 AUDIO TITLE "Chanson De Maxence (Reprise)" PERFORMER "Legrand, Michel - Demy, Jacques" REM COMPOSER "" ISRC FRZ036704510 INDEX 00 02:26:74FILE "12. Legrand, Michel - Demy, Jacques - Chanson De Maxence (Reprise).wav" WAVE INDEX 01 00:00:00 TRACK 13 AUDIO TITLE "Chanson De Solange" PERFORMER "Legrand, Michel - Demy, Jacques" REM COMPOSER "" ISRC FRZ036704430 INDEX 00 01:39:13FILE "13. Legrand, Michel - Demy, Jacques - Chanson De Solange.wav" WAVE INDEX 01 00:00:00FILE "14. Legrand, Michel - Demy, Jacques - De Hambourg A Rochefort.wav" WAVE TRACK 14 AUDIO TITLE "De Hambourg A Rochefort" PERFORMER "Legrand, Michel - Demy, Jacques" REM COMPOSER "" ISRC FRZ036704520 INDEX 01 00:00:00FILE "15. Legrand, Michel - Demy, Jacques - La Femme Coupee En Morceaux.wav" WAVE TRACK 15 AUDIO TITLE "La Femme Coupee En Morceaux" PERFORMER "Legrand, Michel - Demy, Jacques" REM COMPOSER "" ISRC FRZ036704740 INDEX 01 00:00:00
</div>
</div>
Треклист:
1. Les rencontres (05:38)
2. Chanson d'Andy (02:34)
3. Kermesse (06:57)
4. Chanson d un jour d'été (03:38)
5. Toujours, jamais (03:25)
6. Concerto (ballet) (02:46)
7. Départ des forains (ballet) (02:48)
8. Final (04:13)
9. Marco enceint (03:40)
10. Paris perdu (version accordéon) (02:10)
11. Sirop prénatif (I) (02:40)
12. My baby (03:03)
13. La pizza (01:04)
14. Les angoisses de Marco (02:14)
15. Sirop prénatif (II) (01:41)
16. Paris perdu (version accordéon 2) (02:23)
17. Sirop prénatif (III) (01:01)
18. Le café du coin (01:21)
19. Irène et Marco (03:01)
<div class="sp-wrap">
<div class="sp-head folded">Лог создания рипа</div>
<div class="sp-body">

Exact Audio Copy V1.3 from 2. September 2016

EAC extraction logfile from 12. July 2018, 10:42

Legrand, Michel - Demy, Jacques / Jacques Demy - Michel Legrand - L'Intégrale - The Complete Edition - CD 4

Used drive : ATAPI iHBS312 2 Adapter: 1 ID: 1

Read mode : SecureUtilize accurate stream : YesDefeat audio cache : YesMake use of C2 pointers : No

Read offset correction : 6Overread into Lead-In and Lead-Out : NoFill up missing offset samples with silence : YesDelete leading and trailing silent blocks : NoNull samples used in CRC calculations : YesUsed interface : Native Win32 interface for Win NT & 2000Gap handling : Appended to previous track

Used output format : User Defined EncoderSelected bitrate : 1024 kBit/sQuality : HighAdd ID3 tag : NoCommand line compressor : C:\Program Files\Exact Audio Copy\Flac\flac.exeAdditional command line options : -V -8 -T "Genre=%genre%" -T "Artist=%artist%" -T "Title=%title%" -T "Album=%albumtitle%" -T "Date=%year%" -T "Tracknumber=%tracknr%" -T "Comment=%comment%" %source%

TOC of the extracted CD

Track | Start | Length | Start sector | End sector --------------------------------------------------------- 1 | 0:00.00 | 5:41.65 | 0 | 25639 2 | 5:41.65 | 2:37.24 | 25640 | 37438 3 | 8:19.14 | 6:57.51 | 37439 | 68764 4 | 15:16.65 | 3:38.08 | 68765 | 85122 5 | 18:54.73 | 3:26.33 | 85123 | 100605 6 | 22:21.31 | 2:46.69 | 100606 | 113124 7 | 25:08.25 | 2:49.29 | 113125 | 125828 8 | 27:57.54 | 4:17.62 | 125829 | 145165 9 | 32:15.41 | 3:43.71 | 145166 | 161961 10 | 35:59.37 | 2:13.42 | 161962 | 171978 11 | 38:13.04 | 2:43.49 | 171979 | 184252 12 | 40:56.53 | 3:06.23 | 184253 | 198225 13 | 44:03.01 | 1:07.63 | 198226 | 203313 14 | 45:10.64 | 2:17.07 | 203314 | 213595 15 | 47:27.71 | 1:44.50 | 213596 | 221445 16 | 49:12.46 | 2:26.48 | 221446 | 232443 17 | 51:39.19 | 1:04.12 | 232444 | 237255 18 | 52:43.31 | 1:24.37 | 237256 | 243592 19 | 54:07.68 | 3:02.31 | 243593 | 257273

Track 1

Filename F:\torrent\THE COMPLETE EDITION JACQUES DEMY_MICHEL LEGRAND\CD 4\score\01. Legrand, Michel - Demy, Jacques - Les Demoiselles De Rochefort - Les Rencontres.wav

Pre-gap length 0:00:02.00

Peak level 87.8 % Extraction speed 5.7 X Track quality 100.0 % Test CRC BC66D5A9 Copy CRC BC66D5A9 Accurately ripped (confidence 9) [5739AFCA] (AR v2) Copy OK

Track 2

Filename F:\torrent\THE COMPLETE EDITION JACQUES DEMY_MICHEL LEGRAND\CD 4\score\02. Legrand, Michel - Demy, Jacques - Les Demoiselles De Rochefort - Chanson D'Andy.wav

Pre-gap length 0:00:01.54

Peak level 87.8 % Extraction speed 5.7 X Track quality 100.0 % Test CRC 6FCABD04 Copy CRC 6FCABD04 Accurately ripped (confidence 9) [822309F9] (AR v2) Copy OK

Track 3

Filename F:\torrent\THE COMPLETE EDITION JACQUES DEMY_MICHEL LEGRAND\CD 4\score\03. Legrand, Michel - Demy, Jacques - Les Demoiselles De Rochefort - Kermesse.wav

Pre-gap length 0:00:01.45

Peak level 87.8 % Extraction speed 6.3 X Track quality 99.9 % Test CRC 38A8A00C Copy CRC 38A8A00C Accurately ripped (confidence 9) [6A9E0563] (AR v2) Copy OK

Track 4

Filename F:\torrent\THE COMPLETE EDITION JACQUES DEMY_MICHEL LEGRAND\CD 4\score\04. Legrand, Michel - Demy, Jacques - Les Demoiselles De Rochefort - Chanson D'Un Jour D'Été.wav

Peak level 83.5 % Extraction speed 5.9 X Track quality 99.9 % Test CRC 7746341A Copy CRC 7746341A Accurately ripped (confidence 9) [5A0B852A] (AR v2) Copy OK

Track 5

Filename F:\torrent\THE COMPLETE EDITION JACQUES DEMY_MICHEL LEGRAND\CD 4\score\05. Legrand, Michel - Demy, Jacques - Les Demoiselles De Rochefort - Toujours, Jamais.wav

Peak level 87.4 % Extraction speed 7.4 X Track quality 100.0 % Test CRC AF44F618 Copy CRC AF44F618 Accurately ripped (confidence 9) [A394E61C] (AR v2) Copy OK

Track 6

Filename F:\torrent\THE COMPLETE EDITION JACQUES DEMY_MICHEL LEGRAND\CD 4\score\06. Legrand, Michel - Demy, Jacques - Les Demoiselles De Rochefort - Concerto (Ballet).wav

Peak level 74.5 % Extraction speed 7.4 X Track quality 100.0 % Test CRC A849BF2B Copy CRC A849BF2B Accurately ripped (confidence 9) [4091D8BC] (AR v2) Copy OK

Track 7

Filename F:\torrent\THE COMPLETE EDITION JACQUES DEMY_MICHEL LEGRAND\CD 4\score\07. Legrand, Michel - Demy, Jacques - Les Demoiselles De Rochefort - Départ Des Forains (Ballet).wav

Peak level 79.5 % Extraction speed 7.7 X Track quality 100.0 % Test CRC 1D97315A Copy CRC 1D97315A Accurately ripped (confidence 9) [72444D89] (AR v2) Copy OK

Track 8

Filename F:\torrent\THE COMPLETE EDITION JACQUES DEMY_MICHEL LEGRAND\CD 4\score\08. Legrand, Michel - Demy, Jacques - Les Demoiselles De Rochefort - Final.wav

Peak level 87.9 % Extraction speed 8.6 X Track quality 100.0 % Test CRC 4EEE7266 Copy CRC 4EEE7266 Accurately ripped (confidence 9) [D8AE7353] (AR v2) Copy OK

Track 9

Filename F:\torrent\THE COMPLETE EDITION JACQUES DEMY_MICHEL LEGRAND\CD 4\score\09. Legrand, Michel - Demy, Jacques - L'Événement Le Plus Important Depuis Que L'Homme A Marché Sur La Lune - Marco Enceint.wav

Pre-gap length 0:00:04.00

Peak level 67.0 % Extraction speed 8.8 X Track quality 100.0 % Test CRC 5ACE91A2 Copy CRC 5ACE91A2 Accurately ripped (confidence 9) [CC11D877] (AR v2) Copy OK

Track 10

Filename F:\torrent\THE COMPLETE EDITION JACQUES DEMY_MICHEL LEGRAND\CD 4\score\10. Legrand, Michel - Demy, Jacques - Pairs Perdue (Version Accordéon).wav

Pre-gap length 0:00:02.00

Peak level 63.5 % Extraction speed 8.1 X Track quality 100.0 % Test CRC 33D2BD3D Copy CRC 33D2BD3D Accurately ripped (confidence 9) [A772EFE5] (AR v2) Copy OK

Track 11

Filename F:\torrent\THE COMPLETE EDITION JACQUES DEMY_MICHEL LEGRAND\CD 4\score\11. Legrand, Michel - Demy, Jacques - Sirop Prénatif (I).wav

Pre-gap length 0:00:02.00

Peak level 65.5 % Extraction speed 6.8 X Track quality 99.9 % Test CRC 5AB52FC1 Copy CRC 5AB52FC1 Accurately ripped (confidence 9) [F7A0312C] (AR v2) Copy OK

Track 12

Filename F:\torrent\THE COMPLETE EDITION JACQUES DEMY_MICHEL LEGRAND\CD 4\score\12. Legrand, Michel - Demy, Jacques - My Baby.wav

Pre-gap length 0:00:02.00

Peak level 94.6 % Extraction speed 9.1 X Track quality 100.0 % Test CRC 92CE5A45 Copy CRC 92CE5A45 Accurately ripped (confidence 9) [86608DFA] (AR v2) Copy OK

Track 13

Filename F:\torrent\THE COMPLETE EDITION JACQUES DEMY_MICHEL LEGRAND\CD 4\score\13. Legrand, Michel - Demy, Jacques - La Pizza.wav

Pre-gap length 0:00:02.00

Peak level 70.5 % Extraction speed 7.2 X Track quality 100.0 % Test CRC 0F87512B Copy CRC 0F87512B Accurately ripped (confidence 9) [E0345015] (AR v2) Copy OK

Track 14

Filename F:\torrent\THE COMPLETE EDITION JACQUES DEMY_MICHEL LEGRAND\CD 4\score\14. Legrand, Michel - Demy, Jacques - Les Angoisses De Marco.wav

Pre-gap length 0:00:02.00

Peak level 70.0 % Extraction speed 6.7 X Track quality 99.9 % Test CRC 2B6AE447 Copy CRC 2B6AE447 Accurately ripped (confidence 9) [9A87073B] (AR v2) Copy OK

Track 15

Filename F:\torrent\THE COMPLETE EDITION JACQUES DEMY_MICHEL LEGRAND\CD 4\score\15. Legrand, Michel - Demy, Jacques - Sirop Prénatif (II).wav

Pre-gap length 0:00:02.00

Peak level 63.5 % Extraction speed 8.5 X Track quality 100.0 % Test CRC 26E609D8 Copy CRC 26E609D8 Accurately ripped (confidence 9) [2699BBAF] (AR v2) Copy OK

Track 16

Filename F:\torrent\THE COMPLETE EDITION JACQUES DEMY_MICHEL LEGRAND\CD 4\score\16. Legrand, Michel - Demy, Jacques - Paris Perdu (Version Accordéon 2).wav

Pre-gap length 0:00:02.00

Peak level 67.3 % Extraction speed 9.2 X Track quality 100.0 % Test CRC BEA9B659 Copy CRC BEA9B659 Accurately ripped (confidence 9) [DD1B54FB] (AR v2) Copy OK

Track 17

Filename F:\torrent\THE COMPLETE EDITION JACQUES DEMY_MICHEL LEGRAND\CD 4\score\17. Legrand, Michel - Demy, Jacques - Sirop Prénatif (III).wav

Pre-gap length 0:00:02.00

Peak level 52.8 % Extraction speed 7.4 X Track quality 100.0 % Test CRC EDCDE192 Copy CRC EDCDE192 Accurately ripped (confidence 9) [65552D63] (AR v2) Copy OK

Track 18

Filename F:\torrent\THE COMPLETE EDITION JACQUES DEMY_MICHEL LEGRAND\CD 4\score\18. Legrand, Michel - Demy, Jacques - Le Café Du Coint.wav

Pre-gap length 0:00:02.00

Peak level 62.8 % Extraction speed 8.2 X Track quality 100.0 % Test CRC AD3B22DD Copy CRC AD3B22DD Accurately ripped (confidence 9) [6EEC25DC] (AR v2) Copy OK

Track 19

Filename F:\torrent\THE COMPLETE EDITION JACQUES DEMY_MICHEL LEGRAND\CD 4\score\19. Legrand, Michel - Demy, Jacques - Irène Et Marco.wav

Pre-gap length 0:00:02.00

Peak level 96.6 % Extraction speed 10.0 X Track quality 100.0 % Test CRC 6FD04AB1 Copy CRC 6FD04AB1 Accurately ripped (confidence 9) [6EA5C5C5] (AR v2) Copy OK

All tracks accurately ripped

No errors occurred

End of status report

---- CUETools DB Plugin V2.1.6

[CTDB TOCID: 1LMWNUXf9V_m0ziQZytCGcGXPp8-] foundSubmit result: 1LMWNUXf9V_m0ziQZytCGcGXPp8- has been confirmedTrack | CTDB Status 1 | (13/14) Accurately ripped 2 | (13/14) Accurately ripped 3 | (13/14) Accurately ripped 4 | (13/14) Accurately ripped 5 | (13/14) Accurately ripped 6 | (13/14) Accurately ripped 7 | (14/14) Accurately ripped 8 | (13/14) Accurately ripped 9 | (14/14) Accurately ripped 10 | (14/14) Accurately ripped 11 | (13/14) Accurately ripped 12 | (14/14) Accurately ripped 13 | (14/14) Accurately ripped 14 | (13/14) Accurately ripped 15 | (14/14) Accurately ripped 16 | (14/14) Accurately ripped 17 | (14/14) Accurately ripped 18 | (14/14) Accurately ripped 19 | (14/14) Accurately ripped

==== Log checksum 91A4749B6B1F2B0D27CCC5EE38D998492A5C635DC6CE192A57802AF0BA532A3A ====
REM GENRE SoundtrackREM DATE 2013REM DISCID 0A0D6613REM COMMENT "ExactAudioCopy v1.3"CATALOG 0600753421635PERFORMER "Legrand, Michel - Demy, Jacques"TITLE "Jacques Demy - Michel Legrand - L'Integrale - The Complete Edition - CD 4"REM COMPOSER ""FILE "01. Legrand, Michel - Demy, Jacques - Les Demoiselles De Rochefort - Les Rencontres.wav" WAVE TRACK 01 AUDIO TITLE "Les Demoiselles De Rochefort - Les Rencontres" PERFORMER "Legrand, Michel - Demy, Jacques" REM COMPOSER "" ISRC FRZ036704530 INDEX 01 00:00:00 TRACK 02 AUDIO TITLE "Les Demoiselles De Rochefort - Chanson D'Andy" PERFORMER "Legrand, Michel - Demy, Jacques" REM COMPOSER "" ISRC FRZ036704750 INDEX 00 05:40:11FILE "02. Legrand, Michel - Demy, Jacques - Les Demoiselles De Rochefort - Chanson D'Andy.wav" WAVE INDEX 01 00:00:00 TRACK 03 AUDIO TITLE "Les Demoiselles De Rochefort - Kermesse" PERFORMER "Legrand, Michel - Demy, Jacques" REM COMPOSER "" ISRC FRZ036704550 INDEX 00 02:35:54FILE "03. Legrand, Michel - Demy, Jacques - Les Demoiselles De Rochefort - Kermesse.wav" WAVE INDEX 01 00:00:00FILE "04. Legrand, Michel - Demy, Jacques - Les Demoiselles De Rochefort - Chanson D'Un Jour D'Ete.wav" WAVE TRACK 04 AUDIO TITLE "Les Demoiselles De Rochefort - Chanson D'Un Jour D'Ete" PERFORMER "Legrand, Michel - Demy, Jacques" REM COMPOSER "" ISRC FRZ036704760 INDEX 01 00:00:00FILE "05. Legrand, Michel - Demy, Jacques - Les Demoiselles De Rochefort - Toujours, Jamais.wav" WAVE TRACK 05 AUDIO TITLE "Les Demoiselles De Rochefort - Toujours, Jamais" PERFORMER "Legrand, Michel - Demy, Jacques" REM COMPOSER "" ISRC FRZ036704470 INDEX 01 00:00:00FILE "06. Legrand, Michel - Demy, Jacques - Les Demoiselles De Rochefort - Concerto (Ballet).wav" WAVE TRACK 06 AUDIO TITLE "Les Demoiselles De Rochefort - Concerto (Ballet)" PERFORMER "Legrand, Michel - Demy, Jacques" REM COMPOSER "" ISRC FRZ036704560 INDEX 01 00:00:00FILE "07. Legrand, Michel - Demy, Jacques - Les Demoiselles De Rochefort - Depart Des Forains (Ballet).wav" WAVE TRACK 07 AUDIO TITLE "Les Demoiselles De Rochefort - Depart Des Forains (Ballet)" PERFORMER "Legrand, Michel - Demy, Jacques" REM COMPOSER "" ISRC FRZ036704570 INDEX 01 00:00:00FILE "08. Legrand, Michel - Demy, Jacques - Les Demoiselles De Rochefort - Final.wav" WAVE TRACK 08 AUDIO TITLE "Les Demoiselles De Rochefort - Final" PERFORMER "Legrand, Michel - Demy, Jacques" REM COMPOSER "" ISRC FRZ036704580 INDEX 01 00:00:00 TRACK 09 AUDIO TITLE "L'Evenement Le Plus Important Depuis Que L'Homme A Marche Sur La Lune - Marc..." PERFORMER "Legrand, Michel - Demy, Jacques" REM COMPOSER "" ISRC FR2F41300320 INDEX 00 04:13:62FILE "09. Legrand, Michel - Demy, Jacques - L'Evenement Le Plus Important Depuis Que L'Homme A Marche Sur La Lune - Marco Enceint.wav" WAVE INDEX 01 00:00:00 TRACK 10 AUDIO TITLE "Pairs Perdue (Version Accordeon)" PERFORMER "Legrand, Michel - Demy, Jacques" REM COMPOSER "" ISRC FR2F41300330 INDEX 00 03:41:71FILE "10. Legrand, Michel - Demy, Jacques - Pairs Perdue (Version Accordeon).wav" WAVE INDEX 01 00:00:00 TRACK 11 AUDIO TITLE "Sirop Prenatif (I)" PERFORMER "Legrand, Michel - Demy, Jacques" REM COMPOSER "" ISRC FR2F41300340 INDEX 00 02:11:42FILE "11. Legrand, Michel - Demy, Jacques - Sirop Prenatif (I).wav" WAVE INDEX 01 00:00:00 TRACK 12 AUDIO TITLE "My Baby" PERFORMER "Legrand, Michel - Demy, Jacques" REM COMPOSER "" ISRC FR2F41300350 INDEX 00 02:41:49FILE "12. Legrand, Michel - Demy, Jacques - My Baby.wav" WAVE INDEX 01 00:00:00 TRACK 13 AUDIO TITLE "La Pizza" PERFORMER "Legrand, Michel - Demy, Jacques" REM COMPOSER "" ISRC FR2F41300360 INDEX 00 03:04:23FILE "13. Legrand, Michel - Demy, Jacques - La Pizza.wav" WAVE INDEX 01 00:00:00 TRACK 14 AUDIO TITLE "Les Angoisses De Marco" PERFORMER "Legrand, Michel - Demy, Jacques" REM COMPOSER "" ISRC FR2F41300370 INDEX 00 01:05:63FILE "14. Legrand, Michel - Demy, Jacques - Les Angoisses De Marco.wav" WAVE INDEX 01 00:00:00 TRACK 15 AUDIO TITLE "Sirop Prenatif (II)" PERFORMER "Legrand, Michel - Demy, Jacques" REM COMPOSER "" ISRC FR2F41300380 INDEX 00 02:15:07FILE "15. Legrand, Michel - Demy, Jacques - Sirop Prenatif (II).wav" WAVE INDEX 01 00:00:00 TRACK 16 AUDIO TITLE "Paris Perdu (Version Accordeon 2)" PERFORMER "Legrand, Michel - Demy, Jacques" REM COMPOSER "" ISRC FR2F41300390 INDEX 00 01:42:50FILE "16. Legrand, Michel - Demy, Jacques - Paris Perdu (Version Accordeon 2).wav" WAVE INDEX 01 00:00:00 TRACK 17 AUDIO TITLE "Sirop Prenatif (III)" PERFORMER "Legrand, Michel - Demy, Jacques" REM COMPOSER "" ISRC FR2F41300400 INDEX 00 02:24:48FILE "17. Legrand, Michel - Demy, Jacques - Sirop Prenatif (III).wav" WAVE INDEX 01 00:00:00 TRACK 18 AUDIO TITLE "Le Cafe Du Coint" PERFORMER "Legrand, Michel - Demy, Jacques" REM COMPOSER "" ISRC FR2F41300410 INDEX 00 01:02:12FILE "18. Legrand, Michel - Demy, Jacques - Le Cafe Du Coint.wav" WAVE INDEX 01 00:00:00 TRACK 19 AUDIO TITLE "Irene Et Marco" PERFORMER "Legrand, Michel - Demy, Jacques" REM COMPOSER "" ISRC FR2F41300420 INDEX 00 01:22:37FILE "19. Legrand, Michel - Demy, Jacques - Irene Et Marco.wav" WAVE INDEX 01 00:00:00
</div>
</div>
Треклист:
1. A Pair of Twins (03:55)
2. The Girl I've Never Met (03:57)
3. Call It a Day (04:52)
4. We Travel' Round (02:50)
5. The Man I've Never Met (02:32)
6. Simon's Lament (02:50)
7. Sailors in Waterfront Saloons (03:54)
8. Andy In Love (03:59)
9. Yvonne's Lament (02:27)
10. The Girl I've Never Met (short version) (01:49)
11. Bringing Boubou Back from School (02:40)
12. Hamburg Port (05:51)
13. The Murder of Pélagie Rozier (02:36)
14. The Meetings (05:38)
15. Andy's Song (02:35)
16. Summer Song (03:29)
17. Always, Never (03:25)
<div class="sp-wrap">
<div class="sp-head folded">Лог создания рипа</div>
<div class="sp-body">

Exact Audio Copy V1.3 from 2. September 2016

EAC extraction logfile from 12. July 2018, 12:24

Legrand, Michel - Demy, Jacques / Jacques Demy - Michel Legrand - L'Intégrale - The Complete Edition - CD 5 - The Yound Girls Of Rochefort

Used drive : ATAPI iHBS312 2 Adapter: 1 ID: 1

Read mode : SecureUtilize accurate stream : YesDefeat audio cache : YesMake use of C2 pointers : No

Read offset correction : 6Overread into Lead-In and Lead-Out : NoFill up missing offset samples with silence : YesDelete leading and trailing silent blocks : NoNull samples used in CRC calculations : YesUsed interface : Native Win32 interface for Win NT & 2000Gap handling : Appended to previous track

Used output format : User Defined EncoderSelected bitrate : 1024 kBit/sQuality : HighAdd ID3 tag : NoCommand line compressor : C:\Program Files\Exact Audio Copy\Flac\flac.exeAdditional command line options : -V -8 -T "Genre=%genre%" -T "Artist=%artist%" -T "Title=%title%" -T "Album=%albumtitle%" -T "Date=%year%" -T "Tracknumber=%tracknr%" -T "Comment=%comment%" %source%

TOC of the extracted CD

Track | Start | Length | Start sector | End sector --------------------------------------------------------- 1 | 0:00.00 | 3:59.40 | 0 | 17964 2 | 3:59.40 | 4:01.66 | 17965 | 36105 3 | 8:01.31 | 4:56.15 | 36106 | 58320 4 | 12:57.46 | 2:54.59 | 58321 | 71429 5 | 15:52.30 | 2:36.59 | 71430 | 83188 6 | 18:29.14 | 2:54.10 | 83189 | 96248 7 | 21:23.24 | 3:58.69 | 96249 | 114167 8 | 25:22.18 | 4:03.72 | 114168 | 132464 9 | 29:26.15 | 2:31.42 | 132465 | 143831 10 | 31:57.57 | 1:53.50 | 143832 | 152356 11 | 33:51.32 | 2:44.19 | 152357 | 164675 12 | 36:35.51 | 5:55.74 | 164676 | 191374 13 | 42:31.50 | 2:40.01 | 191375 | 203375 14 | 45:11.51 | 5:42.70 | 203376 | 229095 15 | 50:54.46 | 2:39.49 | 229096 | 241069 16 | 53:34.20 | 3:33.69 | 241070 | 257113 17 | 57:08.14 | 3:26.32 | 257114 | 272595

Track 1

Filename F:\torrent\THE COMPLETE EDITION JACQUES DEMY_MICHEL LEGRAND\CD 5\score\01. Legrand, Michel - Demy, Jacques - A Pair Of Twins.wav

Pre-gap length 0:00:02.00

Peak level 82.9 % Extraction speed 5.2 X Track quality 100.0 % Test CRC 106A1AB6 Copy CRC 106A1AB6 Accurately ripped (confidence 7) [9B4DBBAA] (AR v2) Copy OK

Track 2

Filename F:\torrent\THE COMPLETE EDITION JACQUES DEMY_MICHEL LEGRAND\CD 5\score\02. Legrand, Michel - Demy, Jacques - The Girl I've Never Met.wav

Pre-gap length 0:00:03.00

Peak level 77.3 % Extraction speed 6.0 X Track quality 100.0 % Test CRC C695A27B Copy CRC C695A27B Accurately ripped (confidence 7) [E0D3A33B] (AR v2) Copy OK

Track 3

Filename F:\torrent\THE COMPLETE EDITION JACQUES DEMY_MICHEL LEGRAND\CD 5\score\03. Legrand, Michel - Demy, Jacques - Call It A Day.wav

Pre-gap length 0:00:03.00

Peak level 82.3 % Extraction speed 6.6 X Track quality 100.0 % Test CRC FB5630E1 Copy CRC FB5630E1 Accurately ripped (confidence 7) [B6C849E9] (AR v2) Copy OK

Track 4

Filename F:\torrent\THE COMPLETE EDITION JACQUES DEMY_MICHEL LEGRAND\CD 5\score\04. Legrand, Michel - Demy, Jacques - We Travel 'round.wav

Pre-gap length 0:00:03.00

Peak level 96.0 % Extraction speed 6.6 X Track quality 100.0 % Test CRC A0382106 Copy CRC A0382106 Accurately ripped (confidence 7) [A9DB96C9] (AR v2) Copy OK

Track 5

Filename F:\torrent\THE COMPLETE EDITION JACQUES DEMY_MICHEL LEGRAND\CD 5\score\05. Legrand, Michel - Demy, Jacques - The Man I've Never Met.wav

Pre-gap length 0:00:03.00

Peak level 72.9 % Extraction speed 6.8 X Track quality 100.0 % Test CRC 1DB0FD3C Copy CRC 1DB0FD3C Accurately ripped (confidence 7) [7A4B6A7F] (AR v2) Copy OK

Track 6

Filename F:\torrent\THE COMPLETE EDITION JACQUES DEMY_MICHEL LEGRAND\CD 5\score\06. Legrand, Michel - Demy, Jacques - Simon's Lament.wav

Pre-gap length 0:00:03.00

Peak level 69.6 % Extraction speed 7.1 X Track quality 100.0 % Test CRC DC57ECB8 Copy CRC DC57ECB8 Accurately ripped (confidence 7) [CE3090C4] (AR v2) Copy OK

Track 7

Filename F:\torrent\THE COMPLETE EDITION JACQUES DEMY_MICHEL LEGRAND\CD 5\score\07. Legrand, Michel - Demy, Jacques - Sailors In Waterhouse Saloons.wav

Pre-gap length 0:00:03.00

Peak level 79.8 % Extraction speed 7.9 X Track quality 100.0 % Test CRC DA2C64D4 Copy CRC DA2C64D4 Accurately ripped (confidence 7) [E70E6C3C] (AR v2) Copy OK

Track 8

Filename F:\torrent\THE COMPLETE EDITION JACQUES DEMY_MICHEL LEGRAND\CD 5\score\08. Legrand, Michel - Demy, Jacques - Andy In Love.wav

Pre-gap length 0:00:03.00

Peak level 90.4 % Extraction speed 8.3 X Track quality 100.0 % Test CRC 6B84E01F Copy CRC 6B84E01F Accurately ripped (confidence 7) [C9581CE4] (AR v2) Copy OK

Track 9

Filename F:\torrent\THE COMPLETE EDITION JACQUES DEMY_MICHEL LEGRAND\CD 5\score\09. Legrand, Michel - Demy, Jacques - Yvonne's Lament.wav

Pre-gap length 0:00:03.00

Peak level 69.6 % Extraction speed 8.0 X Track quality 100.0 % Test CRC B9EC5A01 Copy CRC B9EC5A01 Accurately ripped (confidence 7) [81E17E2C] (AR v2) Copy OK

Track 10

Filename F:\torrent\THE COMPLETE EDITION JACQUES DEMY_MICHEL LEGRAND\CD 5\score\10. Legrand, Michel - Demy, Jacques - The Girl I've Never Met (Short Version).wav

Pre-gap length 0:00:03.00

Peak level 71.5 % Extraction speed 7.5 X Track quality 100.0 % Test CRC 25B63364 Copy CRC 25B63364 Accurately ripped (confidence 7) [2DF5F6C6] (AR v2) Copy OK

Track 11

Filename F:\torrent\THE COMPLETE EDITION JACQUES DEMY_MICHEL LEGRAND\CD 5\score\11. Legrand, Michel - Demy, Jacques - Bringing Boubou Back From School.wav

Pre-gap length 0:00:03.00

Peak level 98.5 % Extraction speed 8.4 X Track quality 100.0 % Test CRC FE878B8D Copy CRC FE878B8D Accurately ripped (confidence 7) [D480A3CD] (AR v2) Copy OK

Track 12

Filename F:\torrent\THE COMPLETE EDITION JACQUES DEMY_MICHEL LEGRAND\CD 5\score\12. Legrand, Michel - Demy, Jacques - Hamburg Port.wav

Pre-gap length 0:00:03.00

Peak level 95.6 % Extraction speed 9.7 X Track quality 100.0 % Test CRC B4A6460B Copy CRC B4A6460B Accurately ripped (confidence 7) [3AB11951] (AR v2) Copy OK

Track 13

Filename F:\torrent\THE COMPLETE EDITION JACQUES DEMY_MICHEL LEGRAND\CD 5\score\13. Legrand, Michel - Demy, Jacques - The Murder Of Pélagie Rozier.wav

Pre-gap length 0:00:03.00

Peak level 94.4 % Extraction speed 6.9 X Track quality 99.9 % Test CRC BCF10887 Copy CRC BCF10887 Accurately ripped (confidence 7) [75DD9660] (AR v2) Copy OK

Track 14

Filename F:\torrent\THE COMPLETE EDITION JACQUES DEMY_MICHEL LEGRAND\CD 5\score\14. Legrand, Michel - Demy, Jacques - The Meetings.wav

Pre-gap length 0:00:03.00

Peak level 91.5 % Extraction speed 8.9 X Track quality 99.9 % Test CRC 4D208119 Copy CRC 4D208119 Accurately ripped (confidence 7) [2A495CBD] (AR v2) Copy OK

Track 15

Filename F:\torrent\THE COMPLETE EDITION JACQUES DEMY_MICHEL LEGRAND\CD 5\score\15. Legrand, Michel - Demy, Jacques - Andy's Song.wav

Pre-gap length 0:00:03.00

Peak level 86.2 % Extraction speed 9.6 X Track quality 100.0 % Test CRC 2AAA29FE Copy CRC 2AAA29FE Accurately ripped (confidence 7) [BA6FCC01] (AR v2) Copy OK

Track 16

Filename F:\torrent\THE COMPLETE EDITION JACQUES DEMY_MICHEL LEGRAND\CD 5\score\16. Legrand, Michel - Demy, Jacques - Summer Song.wav

Pre-gap length 0:00:03.00

Peak level 90.4 % Extraction speed 10.2 X Track quality 100.0 % Test CRC 4CEC2B6B Copy CRC 4CEC2B6B Accurately ripped (confidence 7) [88D36FC3] (AR v2) Copy OK

Track 17

Filename F:\torrent\THE COMPLETE EDITION JACQUES DEMY_MICHEL LEGRAND\CD 5\score\17. Legrand, Michel - Demy, Jacques - Always, Never.wav

Pre-gap length 0:00:03.00

Peak level 96.0 % Extraction speed 10.1 X Track quality 100.0 % Test CRC C76B9B0A Copy CRC C76B9B0A Accurately ripped (confidence 7) [59780685] (AR v2) Copy OK

All tracks accurately ripped

No errors occurred

End of status report

---- CUETools DB Plugin V2.1.6

[CTDB TOCID: diNDSimmvIGY0.F2iBhMQ6Y0peA-] foundSubmit result: diNDSimmvIGY0.F2iBhMQ6Y0peA- has been confirmedTrack | CTDB Status 1 | (14/16) Accurately ripped 2 | (15/16) Accurately ripped 3 | (16/16) Accurately ripped 4 | (16/16) Accurately ripped 5 | (16/16) Accurately ripped 6 | (16/16) Accurately ripped 7 | (16/16) Accurately ripped 8 | (16/16) Accurately ripped 9 | (16/16) Accurately ripped 10 | (16/16) Accurately ripped 11 | (16/16) Accurately ripped 12 | (16/16) Accurately ripped 13 | (16/16) Accurately ripped 14 | (16/16) Accurately ripped 15 | (16/16) Accurately ripped 16 | (15/16) Accurately ripped 17 | (16/16) Accurately ripped

==== Log checksum 172F1C0957916BC57EA5D81D723072450B8DB6098DB673900E8379CB44F9B98D ====
REM GENRE SoundtrackREM DATE 2013REM DISCID E60E3211REM COMMENT "ExactAudioCopy v1.3"CATALOG 0600753421642PERFORMER "Legrand, Michel - Demy, Jacques"TITLE "Jacques Demy - Michel Legrand - L'Integrale - The Complete Edition - CD 5 - ..."REM COMPOSER ""FILE "01. Legrand, Michel - Demy, Jacques - A Pair Of Twins.wav" WAVE TRACK 01 AUDIO TITLE "A Pair Of Twins" PERFORMER "Legrand, Michel - Demy, Jacques" REM COMPOSER "" ISRC FR2F41300430 INDEX 01 00:00:00 TRACK 02 AUDIO TITLE "The Girl I've Never Met" PERFORMER "Legrand, Michel - Demy, Jacques" REM COMPOSER "" ISRC FR2F41300440 INDEX 00 03:56:40FILE "02. Legrand, Michel - Demy, Jacques - The Girl I've Never Met.wav" WAVE INDEX 01 00:00:00 TRACK 03 AUDIO TITLE "Call It A Day" PERFORMER "Legrand, Michel - Demy, Jacques" REM COMPOSER "" ISRC FR2F41300450 INDEX 00 03:58:66FILE "03. Legrand, Michel - Demy, Jacques - Call It A Day.wav" WAVE INDEX 01 00:00:00 TRACK 04 AUDIO TITLE "We Travel 'round" PERFORMER "Legrand, Michel - Demy, Jacques" REM COMPOSER "" ISRC FR2F41300460 INDEX 00 04:53:15FILE "04. Legrand, Michel - Demy, Jacques - We Travel 'round.wav" WAVE INDEX 01 00:00:00 TRACK 05 AUDIO TITLE "The Man I've Never Met" PERFORMER "Legrand, Michel - Demy, Jacques" REM COMPOSER "" ISRC FR2F41300470 INDEX 00 02:51:59FILE "05. Legrand, Michel - Demy, Jacques - The Man I've Never Met.wav" WAVE INDEX 01 00:00:00 TRACK 06 AUDIO TITLE "Simon's Lament" PERFORMER "Legrand, Michel - Demy, Jacques" REM COMPOSER "" ISRC FR2F41300480 INDEX 00 02:33:59FILE "06. Legrand, Michel - Demy, Jacques - Simon's Lament.wav" WAVE INDEX 01 00:00:00 TRACK 07 AUDIO TITLE "Sailors In Waterhouse Saloons" PERFORMER "Legrand, Michel - Demy, Jacques" REM COMPOSER "" ISRC FR2F41300490 INDEX 00 02:51:10FILE "07. Legrand, Michel - Demy, Jacques - Sailors In Waterhouse Saloons.wav" WAVE INDEX 01 00:00:00 TRACK 08 AUDIO TITLE "Andy In Love" PERFORMER "Legrand, Michel - Demy, Jacques" REM COMPOSER "" ISRC FR2F41300500 INDEX 00 03:55:69FILE "08. Legrand, Michel - Demy, Jacques - Andy In Love.wav" WAVE INDEX 01 00:00:00 TRACK 09 AUDIO TITLE "Yvonne's Lament" PERFORMER "Legrand, Michel - Demy, Jacques" REM COMPOSER "" ISRC FR2F41300510 INDEX 00 04:00:72FILE "09. Legrand, Michel - Demy, Jacques - Yvonne's Lament.wav" WAVE INDEX 01 00:00:00 TRACK 10 AUDIO TITLE "The Girl I've Never Met (Short Version)" PERFORMER "Legrand, Michel - Demy, Jacques" REM COMPOSER "" ISRC FR2F41300520 INDEX 00 02:28:42FILE "10. Legrand, Michel - Demy, Jacques - The Girl I've Never Met (Short Version).wav" WAVE INDEX 01 00:00:00 TRACK 11 AUDIO TITLE "Bringing Boubou Back From School" PERFORMER "Legrand, Michel - Demy, Jacques" REM COMPOSER "" ISRC FR2F41300530 INDEX 00 01:50:50FILE "11. Legrand, Michel - Demy, Jacques - Bringing Boubou Back From School.wav" WAVE INDEX 01 00:00:00 TRACK 12 AUDIO TITLE "Hamburg Port" PERFORMER "Legrand, Michel - Demy, Jacques" REM COMPOSER "" ISRC FR2F41300540 INDEX 00 02:41:19FILE "12. Legrand, Michel - Demy, Jacques - Hamburg Port.wav" WAVE INDEX 01 00:00:00 TRACK 13 AUDIO TITLE "The Murder Of Pelagie Rozier" PERFORMER "Legrand, Michel - Demy, Jacques" REM COMPOSER "" ISRC FR2F41300550 INDEX 00 05:52:74FILE "13. Legrand, Michel - Demy, Jacques - The Murder Of Pelagie Rozier.wav" WAVE INDEX 01 00:00:00 TRACK 14 AUDIO TITLE "The Meetings" PERFORMER "Legrand, Michel - Demy, Jacques" REM COMPOSER "" ISRC FR2F41300560 INDEX 00 02:37:01FILE "14. Legrand, Michel - Demy, Jacques - The Meetings.wav" WAVE INDEX 01 00:00:00 TRACK 15 AUDIO TITLE "Andy's Song" PERFORMER "Legrand, Michel - Demy, Jacques" REM COMPOSER "" ISRC FR2F41300570 INDEX 00 05:39:70FILE "15. Legrand, Michel - Demy, Jacques - Andy's Song.wav" WAVE INDEX 01 00:00:00 TRACK 16 AUDIO TITLE "Summer Song" PERFORMER "Legrand, Michel - Demy, Jacques" REM COMPOSER "" ISRC FR2F41300580 INDEX 00 02:36:49FILE "16. Legrand, Michel - Demy, Jacques - Summer Song.wav" WAVE INDEX 01 00:00:00 TRACK 17 AUDIO TITLE "Always, Never" PERFORMER "Legrand, Michel - Demy, Jacques" REM COMPOSER "" ISRC FR2F41300590 INDEX 00 03:30:69FILE "17. Legrand, Michel - Demy, Jacques - Always, Never.wav" WAVE INDEX 01 00:00:00
</div>
</div>

Трекер:  [ 17-Июл-2018 12:06 ]

  

Скачать .torrent

Размер .torrent файла 56 KB


Размер: 4 GB
Хэш (hash) релиза: 5f721ea7966a1cbb2ff314a9b532f46522b22264

Еще никто не оставлял запись к записи скачать торрент Полная коллекция Michel Legrand, Jacques Demy LIntégrale - The Complete Edition . Будь первым!

!Обратная связь