Скачать через торрент Годзилла Godzilla: The Series Фильм бесплатно в хорошем качестве torrent

Скачивайте на UnionPeer.org фильмы через торрент без регистрации. Новинки кино в хорошем качестве через торрент. На UnionPeer.org можно скачать через торрент фильмы 2014 и 2015 годов. Самые новые фильмы.

Скачать торрент Годзилла Godzilla: The Series бесплатно через .torrent фильм мультфильм сериал

Статистика раздачи
Размер:  29.84 GB   |    Зарегистрирован:  4 месяца 26 дней   |    .torrent скачан:  34 раза   |   
Раздают:  1  
   
загрузка...
 
Автор Сообщение

Galfimbul

avatar Galfimbul



Годзилла / Godzilla: The Series
The Complete Series

Год выпуска: 12 сентября 1998 – 22 апреля 2000
Страна: США
Жанр: Фантастика, приключения
Продолжительность: 21 мин.
Режиссёр: Дэвид Хартман, Сэм Лью / David Hartman, Sam Liu
Роли дублировали:
Дубляж выполнен по заказу телеканала СТС.

Александр Груздев — Ник Татопулос, часть мужских персонажей.
Александр Комлев — Рэнди Эрнандес, NIGEL (Найджел), часть мужских персонажей.
Андрей Ярославцев — Доктор Мендель Крэйвен, диктор, часть мужских персонажей.
Ольга Зверева — Одри Тиммонс, часть женских персонажей.
Татьяна Канаева — часть женских персонажей.Описание:
Сюжет разворачивается с окончания фильма 1998 года — Американский Годзилла (Зилла) на Бруклинском мосту убит ракетами, выпущенными из истребителей. Доктор Ник Татополос предупреждает военных о том, что несколько яиц, отложенных Годзиллой, могли уцелеть. Одно яйцо уцелело, и из него вылупляется детёныш. Маленький Годзилла быстро растёт и достигает крупных размеров, став потенциальным оружием против других мутантов. Ему удаётся одержать верх над некоторыми из них. Начинают появляться другие мутанты, на борьбу с которыми отправляется Ник и его команда…
Аудиодорожка 01: AC3 | 48khz | 2ch | 192kb/s Профессиональный (многоголосый закадровый)
Аудиодорожка 02: AC3 | 48khz | 2ch | 192kb/s Оригинал (english)
Субтитры : отсутствуют
Разбивка на главы : Есть

Качество: DVD-Remux
Формат: MKV
Видео кодек: MPEG2
Аудио кодек: AC3
Видео: MPEG-2 Video | NTSC | 4:3 | 720x480 | 23.976 fps | 9800 Kbps/
Season 1
Episode 1: New Family: Part 1
Episode 2: New Family: Part 2
Episode 3: D.O.A.
Episode 4: Talkin' Trash
Episode 5: The Winter of Discontent
Episode 6: Cat and Mouse
Episode 7: What Dreams May Come
Episode 8: Leviathan
Episode 9: Hive
Episode 10: Bird of Paradise
Episode 11: DeadLoch
Episode 12: Monster Wars: Part 1
Episode 13: Monster Wars: Part 2
Episode 14: Monster Wars: Part 3
Episode 15: Competition
Episode 16: Freeze
Episode 17: Bug Out
Episode 18: Web Site
Episode 19: An Early Frost
Episode 20: Trust No One
Episode 21: Juggernaut
Season 2
Episode 1: Future Shock
Episode 2: Cash of the Titans
Episode 3: S.C.A.L.E.
Episode 4: Protector
Episode 5: Freak Show
Episode 6: End of the Line
Episode 7: What a Long, Strange Trip It's Been
Episode 8: Wedding Bells Blew
Episode 9: Metamorphosis
Episode 10: Area 51
Episode 11: The Twister
Episode 12: Shafted
Episode 13: Where Is Thy Sting?
Episode 14: Lizard Season
Episode 15: Vision
Episode 16: Underground Movement
Episode 17: Ring of Fire
Episode 18: The Ballad of Gens du Marais
Episode 19: Tourist Trap
<div class="sp-wrap">
<div class="sp-head folded">Media info</div>
<div class="sp-body">

ОбщееУникальный идентификатор : 309842868903966943899027005450362089797 (0xE91990E0A342D3C67FE9610D2560F145)Полное имя : D:\Ремуксы\[AORE] Godzilla\Season One\1.01. New Family - Part 1.mkvФормат : MatroskaВерсия формата : Version 4 / Version 2Размер файла : 764 МбайтПродолжительность : 21 м. 24 с.Режим общего битрейта : ПеременныйОбщий поток : 4989 Кбит/секДата кодирования : UTC 2018-07-17 10:13:53Программа кодирования : mkvmerge v23.0.0 ('The Bride Said No') 64-bitБиблиотека кодирования : libebml v1.3.6 + libmatroska v1.4.9

ВидеоИдентификатор : 1Формат : MPEG VideoВерсия формата : Version 2Профиль формата : Main@MainНастройки формата : CustomMatrix / BVOPПараметр BVOP формата : ДаПараметр матрицы формата : ВыборочнаяПараметр GOP формата : VariableИдентификатор кодека : V_MPEG2Идентификатор кодека/Информация : MPEG 1 or 2 VideoПродолжительность : 21 м. 24 с.Вид битрейта : ПеременныйБитрейт : 4600 Кбит/секМаксимальный битрейт : 9800 Кбит/секШирина : 720 пикселейВысота : 480 пикселейСоотношение сторон : 4:3Режим частоты кадров : ПеременныйЧастота кадров : 23,976 кадра/секЦветовое пространство : YUVСубдискретизация насыщенности : 4:2:0Битовая глубина : 8 битТип развёртки : ПрогрессивнаяПорядок развёртки : 2:3 PulldownМетод сжатия : С потерямиБит/(Пиксели*Кадры) : 0.555Временной код первого кадра : 01:00:00:00Оригинал временного кода : Group of pictures headerРазмер потока : 704 Мбайт (92%)Язык : EnglishDefault : НетForced : Нет

Аудио #1Идентификатор : 2Формат : AC-3Формат/Информация : Audio Coding 3Идентификатор кодека : A_AC3Продолжительность : 21 м. 24 с.Вид битрейта : ПостоянныйБитрейт : 192 Кбит/секКаналы : 2 каналаРасположение каналов : Front: L RЧастота : 48,0 КГцЧастота кадров : 31,250 кадров/сек (1536 SPF)Битовая глубина : 16 битМетод сжатия : С потерямиРазмер потока : 29,4 Мбайт (4%)Заголовок : СТСЯзык : RussianServiceKind/String : Complete MainDefault : ДаForced : Нет

Аудио #2Идентификатор : 3Формат : AC-3Формат/Информация : Audio Coding 3Идентификатор кодека : A_AC3Продолжительность : 21 м. 24 с.Вид битрейта : ПостоянныйБитрейт : 192 Кбит/секКаналы : 2 каналаРасположение каналов : Front: L RЧастота : 48,0 КГцЧастота кадров : 31,250 кадров/сек (1536 SPF)Битовая глубина : 16 битМетод сжатия : С потерямиРазмер потока : 29,4 Мбайт (4%)Язык : EnglishServiceKind/String : Complete MainDefault : НетForced : Нет

Меню00:00:00.000 : en:Chapter 0100:03:04.601 : en:Chapter 0200:20:47.779 : en:Chapter 03
</div>
</div>
Информация о проекте:

Были использованы 4 DVD, выпущенные официально. Видео и аудио никаким обработкам не подвергалось. Русские звук был взят из раздачи со спутника, так как там стереозвук. Звук синхронизировался с помощью Sony Vegas. В некоторых сериях диктор не успевает зачитывать титры до появления видео, поэтому титры брались из следующей серии. Если кого-то не устраивает, делайте сами!
SAT-Rip с ТВ3 (стерео)TV-Rip с СТС (моно)
Самопальный DVD (моно)
Русские DVD (9 серий)
Фильм-предшественник
Мои ремуксы


Трекер:  [ 17-Июл-2018 18:54 ]

  

Скачать .torrent

Размер .torrent файла 77 KB


Размер: 29.84 GB
Хэш (hash) релиза: b8146eb3759e975bcae6029ced2cce91e311974b
Подписка на обновления:

Еще никто не оставлял запись к записи скачать торрент Годзилла Godzilla: The Series . Будь первым!

!Обратная связь