Скачать через торрент музыку Не волнуйся, он далеко не уйдёт Dont Worry, He Wont Get Far on Foot бесплатно без регистрации torrent

Статистика раздачи
Размер:  239 MB   |    Зарегистрирован:  6 месяцев   |    .torrent скачан:  41 раз   |   
Раздают:  1  
   
загрузка...
 
Автор Сообщение

Galfimbul

avatar Galfimbul


Не волнуйся, он далеко не уйдёт / Don't Worry, He Won't Get Far on Foot

Название альбома: Don't Worry, He Won't Get Far on Foot
Жанр: Score
Композитор: Danny Elfman
Год выпуска диска: 2018
Год выпуска фильма: 2018
Производитель диска: US
Издатель (лейбл): Sony Classical / Amazon Studios
Номер по каталогу: 19075823182
Аудиокодек: FLAC
Тип рипа: tracks+.cue
Битрейт аудио: lossless
Продолжительность: 00:40:52
Источник: Спасибо, Filex
Наличие сканов в содержимом раздачи: да
01. Danny Elfman - Don't Worry, He Won't Get Far on Foot (Main Title) (1:49)
02. Danny Elfman - 1st Drink (1:04)
03. Danny Elfman - Phone Call (2:13)
04. Danny Elfman - Car Crash (1:20)
05. Danny Elfman - Stuck in the Tracks (0:44)
06. Danny Elfman - Out of Reach (2:01)
07. Danny Elfman - The Kids Pt. 1 (0:33)
08. Danny Elfman - Mother's Name (1:04)
09. Danny Elfman - The Liquor Store (0:42)
10. Danny Elfman - Annu (0:46)
11. Alex Somers - The Hospital Bed (2:21)
12. Danny Elfman - 12 Steps (1:50)
13. Danny Elfman - Drawing Montage (3:14)
14. Danny Elfman - Gymnasts (0:36)
15. Danny Elfman - Showing Off (1:07)
16. Danny Elfman - Donnie Is Sick (2:45)
17. Danny Elfman - John's Speech (2:03)
18. Danny Elfman - Weepy Donuts (2:29)
19. Danny Elfman - The Kids Pt. 2 (1:56)
20. Danny Elfman - Good News (0:42)
21. Danny Elfman - 12th Step (3:06)
22. John Callahan - Texas When You Go (3:38)
23. Danny and the Hillbilly Boyz - Auntie Tia (2:49)
Exact Audio Copy V1.3 from 2. September 2016

EAC extraction logfile from 17. July 2018, 14:16

Danny Elfman / Don't Worry, He Won't Get Far on Foot

Used drive : PLEXTOR CD-R PX-230A Adapter: 1 ID: 0

Read mode : SecureUtilize accurate stream : YesDefeat audio cache : YesMake use of C2 pointers : No

Read offset correction : 738Overread into Lead-In and Lead-Out : NoFill up missing offset samples with silence : YesDelete leading and trailing silent blocks : NoNull samples used in CRC calculations : YesUsed interface : Native Win32 interface for Win NT & 2000Gap handling : Appended to previous track

Used output format : User Defined EncoderSelected bitrate : 1024 kBit/sQuality : HighAdd ID3 tag : NoCommand line compressor : C:\Program Files\Exact Audio Copy\Flac\flac.exeAdditional command line options : -6 -V -T "ARTIST=%artist%" -T "TITLE=%title%" -T "ALBUM=%albumtitle%" -T "DATE=%year%" -T "TRACKNUMBER=%tracknr%" -T "GENRE=%genre%" -T "COMMENT=%comment%" -T "ALBUMARTIST=%albuminterpret%" -T "COMPOSER=%composer%" -T "DISCNUMBER=%cdnumber%" -T "TOTALDISCS=%totalcds%" -T "TOTALTRACKS=%numtracks%" %source% -o %dest%

TOC of the extracted CD

Track | Start | Length | Start sector | End sector --------------------------------------------------------- 1 | 0:00.00 | 1:48.73 | 0 | 8172 2 | 1:48.73 | 1:04.30 | 8173 | 13002 3 | 2:53.28 | 2:12.63 | 13003 | 22965 4 | 5:06.16 | 1:19.55 | 22966 | 28945 5 | 6:25.71 | 0:44.04 | 28946 | 32249 6 | 7:10.00 | 2:00.67 | 32250 | 41316 7 | 9:10.67 | 0:33.01 | 41317 | 43792 8 | 9:43.68 | 1:03.72 | 43793 | 48589 9 | 10:47.65 | 0:41.49 | 48590 | 51713 10 | 11:29.39 | 0:45.50 | 51714 | 55138 11 | 12:15.14 | 2:20.64 | 55139 | 65702 12 | 14:36.03 | 1:50.16 | 65703 | 73968 13 | 16:26.19 | 3:14.29 | 73969 | 88547 14 | 19:40.48 | 0:36.24 | 88548 | 91271 15 | 20:16.72 | 1:07.09 | 91272 | 96305 16 | 21:24.06 | 2:44.43 | 96306 | 108648 17 | 24:08.49 | 2:03.32 | 108649 | 117905 18 | 26:12.06 | 2:28.71 | 117906 | 129076 19 | 28:41.02 | 1:56.00 | 129077 | 137776 20 | 30:37.02 | 0:42.02 | 137777 | 140928 21 | 31:19.04 | 3:05.38 | 140929 | 154841 22 | 34:24.42 | 3:38.11 | 154842 | 171202 23 | 38:02.53 | 2:48.39 | 171203 | 183841

Track 1

Filename C:\Ripped by Filex\01 - Danny Elfman - Don't Worry, He Won't Get Far on Foot (Main Title).wav

Pre-gap length 0:00:02.00

Peak level 94.4 % Extraction speed 5.7 X Track quality 100.0 % Test CRC 6590F720 Copy CRC 6590F720 Track not present in AccurateRip database Copy OK

Track 2

Filename C:\Ripped by Filex\02 - Danny Elfman - 1st Drink.wav

Pre-gap length 0:00:02.48

Peak level 57.7 % Extraction speed 3.7 X Track quality 99.8 % Test CRC 8E61689F Copy CRC 8E61689F Track not present in AccurateRip database Copy OK

Track 3

Filename C:\Ripped by Filex\03 - Danny Elfman - Phone Call.wav

Pre-gap length 0:00:02.05

Peak level 54.5 % Extraction speed 6.2 X Track quality 100.0 % Test CRC 189F313F Copy CRC 189F313F Track not present in AccurateRip database Copy OK

Track 4

Filename C:\Ripped by Filex\04 - Danny Elfman - Car Crash.wav

Pre-gap length 0:00:01.19

Peak level 58.1 % Extraction speed 5.4 X Track quality 100.0 % Test CRC 2C14353E Copy CRC 2C14353E Track not present in AccurateRip database Copy OK

Track 5

Filename C:\Ripped by Filex\05 - Danny Elfman - Stuck in the Tracks.wav

Pre-gap length 0:00:00.37

Peak level 68.6 % Extraction speed 4.9 X Track quality 100.0 % Test CRC 4642CA8B Copy CRC 4642CA8B Track not present in AccurateRip database Copy OK

Track 6

Filename C:\Ripped by Filex\06 - Danny Elfman - Out of Reach.wav

Pre-gap length 0:00:00.12

Peak level 95.0 % Extraction speed 6.4 X Track quality 100.0 % Test CRC F1A7AB64 Copy CRC F1A7AB64 Track not present in AccurateRip database Copy OK

Track 7

Filename C:\Ripped by Filex\07 - Danny Elfman - The Kids Pt. 1.wav

Pre-gap length 0:00:00.67

Peak level 94.4 % Extraction speed 4.4 X Track quality 100.0 % Test CRC 4B9B1600 Copy CRC 4B9B1600 Track not present in AccurateRip database Copy OK

Track 8

Filename C:\Ripped by Filex\08 - Danny Elfman - Mother's Name.wav

Pre-gap length 0:00:00.19

Peak level 71.8 % Extraction speed 5.5 X Track quality 100.0 % Test CRC F0C18284 Copy CRC F0C18284 Track not present in AccurateRip database Copy OK

Track 9

Filename C:\Ripped by Filex\09 - Danny Elfman - The Liquor Store.wav

Peak level 94.5 % Extraction speed 4.9 X Track quality 100.0 % Test CRC 480437DB Copy CRC 480437DB Track not present in AccurateRip database Copy OK

Track 10

Filename C:\Ripped by Filex\10 - Danny Elfman - Annu.wav

Pre-gap length 0:00:00.71

Peak level 42.3 % Extraction speed 5.3 X Track quality 100.0 % Test CRC 373B74A8 Copy CRC 373B74A8 Track not present in AccurateRip database Copy OK

Track 11

Filename C:\Ripped by Filex\11 - Alex Somers - The Hospital Bed.wav

Pre-gap length 0:00:01.12

Peak level 59.9 % Extraction speed 6.6 X Track quality 100.0 % Test CRC 564907DC Copy CRC 564907DC Track not present in AccurateRip database Copy OK

Track 12

Filename C:\Ripped by Filex\12 - Danny Elfman - 12 Steps.wav

Pre-gap length 0:00:00.45

Peak level 94.4 % Extraction speed 5.3 X Track quality 99.9 % Test CRC E2A81705 Copy CRC E2A81705 Track not present in AccurateRip database Copy OK

Track 13

Filename C:\Ripped by Filex\13 - Danny Elfman - Drawing Montage.wav

Pre-gap length 0:00:02.48

Peak level 94.4 % Extraction speed 7.4 X Track quality 100.0 % Test CRC 2502256A Copy CRC 2502256A Track not present in AccurateRip database Copy OK

Track 14

Filename C:\Ripped by Filex\14 - Danny Elfman - Gymnasts.wav

Pre-gap length 0:00:00.66

Peak level 36.0 % Extraction speed 5.4 X Track quality 100.0 % Test CRC 4C5677C2 Copy CRC 4C5677C2 Track not present in AccurateRip database Copy OK

Track 15

Filename C:\Ripped by Filex\15 - Danny Elfman - Showing Off.wav

Pre-gap length 0:00:00.03

Peak level 98.5 % Extraction speed 6.2 X Track quality 100.0 % Test CRC 0D1DFDEC Copy CRC 0D1DFDEC Track not present in AccurateRip database Copy OK

Track 16

Filename C:\Ripped by Filex\16 - Danny Elfman - Donnie Is Sick.wav

Pre-gap length 0:00:00.05

Peak level 80.3 % Extraction speed 7.7 X Track quality 100.0 % Test CRC B2AB2DCA Copy CRC B2AB2DCA Track not present in AccurateRip database Copy OK

Track 17

Filename C:\Ripped by Filex\17 - Danny Elfman - John's Speech.wav

Peak level 63.1 % Extraction speed 7.8 X Track quality 100.0 % Test CRC 5B697B9A Copy CRC 5B697B9A Track not present in AccurateRip database Copy OK

Track 18

Filename C:\Ripped by Filex\18 - Danny Elfman - Weepy Donuts.wav

Pre-gap length 0:00:00.24

Peak level 63.7 % Extraction speed 7.7 X Track quality 100.0 % Test CRC 200C6FC7 Copy CRC 200C6FC7 Track not present in AccurateRip database Copy OK

Track 19

Filename C:\Ripped by Filex\19 - Danny Elfman - The Kids Pt. 2.wav

Pre-gap length 0:00:00.21

Peak level 94.3 % Extraction speed 8.1 X Track quality 100.0 % Test CRC C9C52830 Copy CRC C9C52830 Track not present in AccurateRip database Copy OK

Track 20

Filename C:\Ripped by Filex\20 - Danny Elfman - Good News.wav

Peak level 80.4 % Extraction speed 6.2 X Track quality 100.0 % Test CRC 21C915EE Copy CRC 21C915EE Track not present in AccurateRip database Copy OK

Track 21

Filename C:\Ripped by Filex\21 - Danny Elfman - 12th Step.wav

Peak level 94.4 % Extraction speed 8.3 X Track quality 100.0 % Test CRC 0C3071B5 Copy CRC 0C3071B5 Track not present in AccurateRip database Copy OK

Track 22

Filename C:\Ripped by Filex\22 - John Callahan - Texas When You Go.wav

Pre-gap length 0:00:01.20

Peak level 48.0 % Extraction speed 7.6 X Track quality 99.9 % Test CRC F30214D5 Copy CRC F30214D5 Track not present in AccurateRip database Copy OK

Track 23

Filename C:\Ripped by Filex\23 - Danny and the Hillbilly Boyz - Auntie Tia.wav

Pre-gap length 0:00:01.18

Peak level 98.8 % Extraction speed 8.8 X Track quality 100.0 % Test CRC F2C73748 Copy CRC F2C73748 Track not present in AccurateRip database Copy OK

None of the tracks are present in the AccurateRip database

No errors occurred

End of status report

---- CUETools DB Plugin V2.1.6

[CTDB TOCID: Dt9Zz6GKAYdheljbiwMrHma7nIk-] disk not present in databaseSubmit result: Dt9Zz6GKAYdheljbiwMrHma7nIk- has been uploaded

==== Log checksum 2F71C5E5AE63AEB3193FC31285F8FA2817C82AF84F45E05AAB37F390153185FB ====
REM GENRE SoundtrackREM DATE 2018REM DISCID 50099317REM COMMENT "ExactAudioCopy v1.3"PERFORMER "Danny Elfman"TITLE "Don't Worry, He Won't Get Far on Foot"REM COMPOSER "Danny Elfman"FILE "01 - Don't Worry, He Won't Get Far on Foot.wav" WAVE TRACK 01 AUDIO TITLE "Don't Worry, He Won't Get Far on Foot (Main Title)" PERFORMER "Danny Elfman" REM COMPOSER "Danny Elfman" INDEX 01 00:00:00 TRACK 02 AUDIO TITLE "1st Drink" PERFORMER "Danny Elfman" REM COMPOSER "Danny Elfman" INDEX 00 01:46:25FILE "02 - 1st Drink.wav" WAVE INDEX 01 00:00:00 TRACK 03 AUDIO TITLE "Phone Call" PERFORMER "Danny Elfman" REM COMPOSER "Danny Elfman" INDEX 00 01:02:25FILE "03 - Phone Call.wav" WAVE INDEX 01 00:00:00 TRACK 04 AUDIO TITLE "Car Crash" PERFORMER "Danny Elfman" REM COMPOSER "Danny Elfman" INDEX 00 02:11:44FILE "04 - Car Crash.wav" WAVE INDEX 01 00:00:00 TRACK 05 AUDIO TITLE "Stuck in the Tracks" PERFORMER "Danny Elfman" REM COMPOSER "Danny Elfman" INDEX 00 01:19:18FILE "05 - Stuck in the Tracks.wav" WAVE INDEX 01 00:00:00 TRACK 06 AUDIO TITLE "Out of Reach" PERFORMER "Danny Elfman" REM COMPOSER "Danny Elfman" INDEX 00 00:43:67FILE "06 - Out of Reach.wav" WAVE INDEX 01 00:00:00 TRACK 07 AUDIO TITLE "The Kids Pt. 1" PERFORMER "Danny Elfman" REM COMPOSER "Danny Elfman" INDEX 00 02:00:00FILE "07 - The Kids Pt. 1.wav" WAVE INDEX 01 00:00:00 TRACK 08 AUDIO TITLE "Mother's Name" PERFORMER "Danny Elfman" REM COMPOSER "Danny Elfman" INDEX 00 00:32:57FILE "08 - Mother's Name.wav" WAVE INDEX 01 00:00:00FILE "09 - The Liquor Store.wav" WAVE TRACK 09 AUDIO TITLE "The Liquor Store" PERFORMER "Danny Elfman" REM COMPOSER "Danny Elfman" INDEX 01 00:00:00 TRACK 10 AUDIO TITLE "Annu" PERFORMER "Danny Elfman" REM COMPOSER "Danny Elfman" INDEX 00 00:40:53FILE "10 - Annu.wav" WAVE INDEX 01 00:00:00 TRACK 11 AUDIO TITLE "The Hospital Bed" PERFORMER "Alex Somers" REM COMPOSER "Alex Somers" INDEX 00 00:44:38FILE "11 - The Hospital Bed.wav" WAVE INDEX 01 00:00:00 TRACK 12 AUDIO TITLE "12 Steps" PERFORMER "Danny Elfman" REM COMPOSER "Danny Elfman" INDEX 00 02:20:19FILE "12 - 12 Steps.wav" WAVE INDEX 01 00:00:00 TRACK 13 AUDIO TITLE "Drawing Montage" PERFORMER "Danny Elfman" REM COMPOSER "Danny Elfman" INDEX 00 01:47:43FILE "13 - Drawing Montage.wav" WAVE INDEX 01 00:00:00 TRACK 14 AUDIO TITLE "Gymnasts" PERFORMER "Danny Elfman" REM COMPOSER "Danny Elfman" INDEX 00 03:13:38FILE "14 - Gymnasts.wav" WAVE INDEX 01 00:00:00 TRACK 15 AUDIO TITLE "Showing Off" PERFORMER "Danny Elfman" REM COMPOSER "Danny Elfman" INDEX 00 00:36:21FILE "15 - Showing Off.wav" WAVE INDEX 01 00:00:00 TRACK 16 AUDIO TITLE "Donnie Is Sick" PERFORMER "Danny Elfman" REM COMPOSER "Danny Elfman" INDEX 00 01:07:04FILE "16 - Donnie Is Sick.wav" WAVE INDEX 01 00:00:00FILE "17 - John's Speech.wav" WAVE TRACK 17 AUDIO TITLE "John's Speech" PERFORMER "Danny Elfman" REM COMPOSER "Danny Elfman" INDEX 01 00:00:00 TRACK 18 AUDIO TITLE "Weepy Donuts" PERFORMER "Danny Elfman" REM COMPOSER "Danny Elfman" INDEX 00 02:03:08FILE "18 - Weepy Donuts.wav" WAVE INDEX 01 00:00:00 TRACK 19 AUDIO TITLE "The Kids Pt. 2" PERFORMER "Danny Elfman" REM COMPOSER "Danny Elfman" INDEX 00 02:28:50FILE "19 - The Kids Pt. 2.wav" WAVE INDEX 01 00:00:00FILE "20 - Good News.wav" WAVE TRACK 20 AUDIO TITLE "Good News" PERFORMER "Danny Elfman" REM COMPOSER "Danny Elfman" INDEX 01 00:00:00FILE "21 - 12th Step.wav" WAVE TRACK 21 AUDIO TITLE "12th Step" PERFORMER "Danny Elfman" REM COMPOSER "Danny Elfman" INDEX 01 00:00:00 TRACK 22 AUDIO TITLE "Texas When You Go" PERFORMER "John Callahan" REM COMPOSER "John Callahan" INDEX 00 03:04:18FILE "22 - Texas When You Go.wav" WAVE INDEX 01 00:00:00 TRACK 23 AUDIO TITLE "Auntie Tia" PERFORMER "Danny and the Hillbilly Boyz" REM COMPOSER "Danny Elfman" INDEX 00 03:36:68FILE "23 - Auntie Tia.wav" WAVE INDEX 01 00:00:00


RG Soundtracks


Трекер:  [ 17-Июл-2018 19:36 ]

  

Скачать .torrent

Размер .torrent файла 21 KB


Размер: 239 MB
Хэш (hash) релиза: 7aa18d4bd6c02ff63a7fb0f1933a2f1a03f0db79

Еще никто не оставлял запись к записи скачать торрент Не волнуйся, он далеко не уйдёт Dont Worry, He Wont Get Far on Foot . Будь первым!

!Обратная связь