Скачать через торрент Комик в городе. Тюмень Фильм бесплатно в хорошем качестве torrent

Скачивайте на UnionPeer.org фильмы через торрент без регистрации. Новинки кино в хорошем качестве через торрент. На UnionPeer.org можно скачать через торрент фильмы 2014 и 2015 годов. Самые новые фильмы.

Скачать торрент Комик в городе. Тюмень бесплатно через .torrent фильм мультфильм сериал

Статистика раздачи
Размер:  604 MB   |    Зарегистрирован:  3 месяца 29 дней   |    .torrent скачан:  40 раз   |   
Раздают:  1  
   
загрузка...
 
Автор Сообщение

Galfimbul

avatar Galfimbul


Комик в городе. Тюмень (выпуск 6-й от 25-03-2018)

Дата/Год выпуска: 2018
Страна: Россия
Жанр: Юмор
Продолжительность: 00:19:37
Перевод: Не требуется
Режиссер: Роман Новиков
Телеканал: ТНТ HD
В ролях: Руслан Белый

Описание: Где-то в Сибири затаился лучший город страны, в котором все хорошо: зарплаты, дороги, женщины, дети, мужчины, птицы… Неужели в Тюмени шоу Комик в городе просто не состоится за неимением поводов для стеба? Но Руслан не был бы Белым, если бы не нашел, к чему придраться. Чем же так хороша Тюмень – смотрите в новом выпуске.

качество: HDTV 1080i
формат: MKV
Видео: 1920x1080 (16:9), 25.000 fps, AVC ~4 028 kbps avg
Аудио: AC3, 192 kbps, 48 kHz, 2 ch
GeneralUnique ID : 242670598418303585374242818977068668460 (0xB690A83F05462607AC6A0164DF9ED62C)Complete name : D:\Humor\Stand Up\Komik v gorode.Vypusk 06.Tyumen.mkvFormat : MatroskaFormat version : Version 2File size : 604 MiBDuration : 19mn 37sOverall bit rate mode : VariableOverall bit rate : 4 305 KbpsEncoded date : UTC 2018-07-18 20:08:25Writing application : mkvmerge v6.1.0 ('Old Devil') built on Mar 4 2013 09:10:42Writing library : libebml v1.3.0 + libmatroska v1.4.0

VideoID : 1Format : AVCFormat/Info : Advanced Video CodecFormat profile : High@L4.0Format settings, CABAC : YesFormat settings, ReFrames : 4 framesCodec ID : V_MPEG4/ISO/AVCDuration : 19mn 37sBit rate mode : VariableBit rate : 4 028 KbpsMaximum bit rate : 4 500 KbpsWidth : 1 920 pixelsHeight : 1 080 pixelsDisplay aspect ratio : 16:9Frame rate mode : ConstantFrame rate : 25.000 fpsColor space : YUVChroma subsampling : 4:2:0Bit depth : 8 bitsScan type : ProgressiveBits/(Pixel*Frame) : 0.078Stream size : 565 MiB (94%)Default : YesForced : No

AudioID : 2Format : AC-3Format/Info : Audio Coding 3Mode extension : CM (complete main)Format settings, Endianness : BigCodec ID : A_AC3Duration : 19mn 37sBit rate mode : ConstantBit rate : 192 KbpsChannel count : 2 channelsChannel positions : Front: L RSampling rate : 48.0 KHzBit depth : 16 bitsCompression mode : LossyStream size : 26.9 MiB (4%)Default : YesForced : No


Трекер:  [ 18-Июл-2018 23:42 ]

  

Скачать .torrent

Размер .torrent файла 12 KB


Размер: 604 MB
Хэш (hash) релиза: 37eefed0e317e365ac90a31e8921679c5297b9e5
Подписка на обновления:

Еще никто не оставлял запись к записи скачать торрент Комик в городе. Тюмень . Будь первым!

!Обратная связь