Скачать через торрент музыку Игра Кауфмана Kaufman’s Game бесплатно без регистрации torrent

Статистика раздачи
Размер:  377 MB   |    Зарегистрирован:  7 месяцев   |    .torrent скачан:  44 раза   |   
Раздают:  1  
   
загрузка...
 
Автор Сообщение

Galfimbul

avatar Galfimbul


Игра Кауфмана |
Kaufman’s Game
Жанр: Score
Композитор: Philippe Jakko
Год выпуска диска: 2018
Год выпуска фильма: 2017
Страна-производитель диска: EU
Издатель (лейбл): Music Box Records
Номер по каталогу: MBR-141
Аудиокодек: FLAC (*.flac)
Тип рипа: tracks+.cue
Битрейт аудио: lossless
Продолжительность: 64:17
Источник: собственный рип
Наличие сканов в содержимом раздачи: да, 600 dpi, jpg
Limited Edition of 300 units
1. Kaufman’s Adagio (3:16)2. The Boxer (2:14)3. Mafia on Rooftop, Pt. 1 (3:55)4. The Needle (3:04)5. The Shower (1:24)6. Stanley in the Building (2:45)7. Kaufman (7:19)8. Running (1:40)9. London Night (4:18)10. Gunshot in the Street (5:22)11. The Crypt (4:59)12. A Good Scare (3:45)13. Remember My Father (5:16)14. Stanley (1:25)15. Mafia at Night (1:27)16. The Chemist (4:23)17. Mafia on Rooftop, Pt. 2 (2:40)18. Stanley on the Bridge (1:24)19. The Dream (1:55)20. Epilogue (1:45)
Exact Audio Copy V1.3 from 2. September 2016

EAC extraction logfile from 18. July 2018, 17:00

Philippe Jakko / Kaufman's Game

Used drive : ATAPI iHBS312 2 Adapter: 1 ID: 1

Read mode : SecureUtilize accurate stream : YesDefeat audio cache : YesMake use of C2 pointers : No

Read offset correction : 6Overread into Lead-In and Lead-Out : NoFill up missing offset samples with silence : YesDelete leading and trailing silent blocks : NoNull samples used in CRC calculations : YesUsed interface : Native Win32 interface for Win NT & 2000Gap handling : Appended to previous track

Used output format : User Defined EncoderSelected bitrate : 1024 kBit/sQuality : HighAdd ID3 tag : NoCommand line compressor : C:\Program Files\Exact Audio Copy\Flac\flac.exeAdditional command line options : -V -8 -T "Genre=%genre%" -T "Artist=%artist%" -T "Title=%title%" -T "Album=%albumtitle%" -T "Date=%year%" -T "Tracknumber=%tracknr%" -T "Comment=%comment%" %source%

TOC of the extracted CD

Track | Start | Length | Start sector | End sector --------------------------------------------------------- 1 | 0:00.00 | 3:15.57 | 0 | 14681 2 | 3:15.57 | 2:13.48 | 14682 | 24704 3 | 5:29.30 | 3:54.65 | 24705 | 42319 4 | 9:24.20 | 3:04.13 | 42320 | 56132 5 | 12:28.33 | 1:23.69 | 56133 | 62426 6 | 13:52.27 | 2:44.61 | 62427 | 74787 7 | 16:37.13 | 7:19.35 | 74788 | 107747 8 | 23:56.48 | 1:39.56 | 107748 | 115228 9 | 25:36.29 | 4:18.10 | 115229 | 134588 10 | 29:54.39 | 5:21.52 | 134589 | 158715 11 | 35:16.16 | 4:58.70 | 158716 | 181135 12 | 40:15.11 | 3:44.59 | 181136 | 197994 13 | 43:59.70 | 5:16.19 | 197995 | 221713 14 | 49:16.14 | 1:24.62 | 221714 | 228075 15 | 50:41.01 | 1:27.03 | 228076 | 234603 16 | 52:08.04 | 4:22.62 | 234604 | 254315 17 | 56:30.66 | 2:40.02 | 254316 | 266317 18 | 59:10.68 | 1:24.11 | 266318 | 272628 19 | 60:35.04 | 1:55.19 | 272629 | 281272 20 | 62:30.23 | 1:45.02 | 281273 | 289149

Track 1

Filename F:\torrent\Kaufman_s Game_Philippe Jakko\score\01. Philippe Jakko - Kaufman’s Adagio.wav

Pre-gap length 0:00:02.00

Peak level 80.7 % Extraction speed 4.9 X Track quality 100.0 % Test CRC 61F2378D Copy CRC 61F2378D Track not present in AccurateRip database Copy OK

Track 2

Filename F:\torrent\Kaufman_s Game_Philippe Jakko\score\02. Philippe Jakko - The Boxer.wav

Peak level 98.8 % Extraction speed 4.9 X Track quality 100.0 % Test CRC 07E3CB8A Copy CRC 07E3CB8A Track not present in AccurateRip database Copy OK

Track 3

Filename F:\torrent\Kaufman_s Game_Philippe Jakko\score\03. Philippe Jakko - Mafia on Rooftop, Pt. 1.wav

Peak level 100.0 % Extraction speed 5.8 X Track quality 100.0 % Test CRC A707B495 Copy CRC A707B495 Track not present in AccurateRip database Copy OK

Track 4

Filename F:\torrent\Kaufman_s Game_Philippe Jakko\score\04. Philippe Jakko - The Needle.wav

Peak level 98.8 % Extraction speed 6.1 X Track quality 100.0 % Test CRC 142101EA Copy CRC 142101EA Track not present in AccurateRip database Copy OK

Track 5

Filename F:\torrent\Kaufman_s Game_Philippe Jakko\score\05. Philippe Jakko - The Shower.wav

Peak level 90.6 % Extraction speed 5.2 X Track quality 100.0 % Test CRC C50119B1 Copy CRC C50119B1 Track not present in AccurateRip database Copy OK

Track 6

Filename F:\torrent\Kaufman_s Game_Philippe Jakko\score\06. Philippe Jakko - Stanley in the Building.wav

Peak level 98.8 % Extraction speed 6.4 X Track quality 100.0 % Test CRC E61F1512 Copy CRC E61F1512 Track not present in AccurateRip database Copy OK

Track 7

Filename F:\torrent\Kaufman_s Game_Philippe Jakko\score\07. Philippe Jakko - Kaufman.wav

Peak level 99.5 % Extraction speed 7.8 X Track quality 100.0 % Test CRC 0EEC6FB5 Copy CRC 0EEC6FB5 Track not present in AccurateRip database Copy OK

Track 8

Filename F:\torrent\Kaufman_s Game_Philippe Jakko\score\08. Philippe Jakko - Running.wav

Peak level 98.8 % Extraction speed 6.5 X Track quality 100.0 % Test CRC 3537A59A Copy CRC 3537A59A Track not present in AccurateRip database Copy OK

Track 9

Filename F:\torrent\Kaufman_s Game_Philippe Jakko\score\09. Philippe Jakko - London Night.wav

Peak level 98.8 % Extraction speed 8.0 X Track quality 100.0 % Test CRC 718AF667 Copy CRC 718AF667 Track not present in AccurateRip database Copy OK

Track 10

Filename F:\torrent\Kaufman_s Game_Philippe Jakko\score\10. Philippe Jakko - Gunshot in the Street.wav

Peak level 98.8 % Extraction speed 7.5 X Track quality 99.9 % Test CRC BDF86B43 Copy CRC BDF86B43 Track not present in AccurateRip database Copy OK

Track 11

Filename F:\torrent\Kaufman_s Game_Philippe Jakko\score\11. Philippe Jakko - The Crypt.wav

Peak level 93.5 % Extraction speed 9.1 X Track quality 100.0 % Test CRC 26D4151E Copy CRC 26D4151E Track not present in AccurateRip database Copy OK

Track 12

Filename F:\torrent\Kaufman_s Game_Philippe Jakko\score\12. Philippe Jakko - A Good Scare.wav

Peak level 98.8 % Extraction speed 7.5 X Track quality 99.9 % Test CRC 1454983C Copy CRC 1454983C Track not present in AccurateRip database Copy OK

Track 13

Filename F:\torrent\Kaufman_s Game_Philippe Jakko\score\13. Philippe Jakko - Remember My Father.wav

Peak level 64.1 % Extraction speed 9.9 X Track quality 100.0 % Test CRC CC323826 Copy CRC CC323826 Track not present in AccurateRip database Copy OK

Track 14

Filename F:\torrent\Kaufman_s Game_Philippe Jakko\score\14. Philippe Jakko - Stanley.wav

Peak level 74.6 % Extraction speed 7.8 X Track quality 100.0 % Test CRC 9E87D100 Copy CRC 9E87D100 Track not present in AccurateRip database Copy OK

Track 15

Filename F:\torrent\Kaufman_s Game_Philippe Jakko\score\15. Philippe Jakko - Mafia at Night.wav

Peak level 77.6 % Extraction speed 7.9 X Track quality 100.0 % Test CRC A36DBE14 Copy CRC A36DBE14 Track not present in AccurateRip database Copy OK

Track 16

Filename F:\torrent\Kaufman_s Game_Philippe Jakko\score\16. Philippe Jakko - The Chemist.wav

Peak level 74.4 % Extraction speed 10.2 X Track quality 100.0 % Test CRC 4302700C Copy CRC 4302700C Track not present in AccurateRip database Copy OK

Track 17

Filename F:\torrent\Kaufman_s Game_Philippe Jakko\score\17. Philippe Jakko - Mafia on Rooftop, Pt. 2.wav

Peak level 99.1 % Extraction speed 7.2 X Track quality 99.9 % Test CRC CA895F37 Copy CRC CA895F37 Track not present in AccurateRip database Copy OK

Track 18

Filename F:\torrent\Kaufman_s Game_Philippe Jakko\score\18. Philippe Jakko - Stanley on the Bridge.wav

Peak level 66.6 % Extraction speed 7.8 X Track quality 100.0 % Test CRC B5C5D6CB Copy CRC B5C5D6CB Track not present in AccurateRip database Copy OK

Track 19

Filename F:\torrent\Kaufman_s Game_Philippe Jakko\score\19. Philippe Jakko - The Dream.wav

Peak level 99.9 % Extraction speed 9.1 X Track quality 100.0 % Test CRC A2B280CE Copy CRC A2B280CE Track not present in AccurateRip database Copy OK

Track 20

Filename F:\torrent\Kaufman_s Game_Philippe Jakko\score\20. Philippe Jakko - Epilogue.wav

Peak level 99.9 % Extraction speed 9.0 X Track quality 100.0 % Test CRC ED60CAA9 Copy CRC ED60CAA9 Track not present in AccurateRip database Copy OK

None of the tracks are present in the AccurateRip database

No errors occurred

End of status report

---- CUETools DB Plugin V2.1.6

[CTDB TOCID: 7oxH5zOJRqX9ZoeWKzuBsZl64H0-] disk not present in databaseSubmit result: 7oxH5zOJRqX9ZoeWKzuBsZl64H0- has been uploaded

==== Log checksum 748AECDD2603FB7BAD3E57F0A3548F6ED75DF813CC7F3EDFEF97B6DAB3B6EC5B ====
REM GENRE SoundtrackREM DATE 2018REM DISCID 2E0F0F14REM COMMENT "ExactAudioCopy v1.3"CATALOG 3770006929465PERFORMER "Philippe Jakko"TITLE "Kaufman's Game"REM COMPOSER ""FILE "01. Philippe Jakko - Kaufman’s Adagio.wav" WAVE TRACK 01 AUDIO TITLE "Kaufman’s Adagio" PERFORMER "Philippe Jakko" REM COMPOSER "" ISRC GBKPL1806083 INDEX 01 00:00:00FILE "02. Philippe Jakko - The Boxer.wav" WAVE TRACK 02 AUDIO TITLE "The Boxer" PERFORMER "Philippe Jakko" REM COMPOSER "" ISRC GBKPL1806084 INDEX 01 00:00:00FILE "03. Philippe Jakko - Mafia on Rooftop, Pt. 1.wav" WAVE TRACK 03 AUDIO TITLE "Mafia on Rooftop, Pt. 1" PERFORMER "Philippe Jakko" REM COMPOSER "" ISRC GBKPL1806065 INDEX 01 00:00:00FILE "04. Philippe Jakko - The Needle.wav" WAVE TRACK 04 AUDIO TITLE "The Needle" PERFORMER "Philippe Jakko" REM COMPOSER "" ISRC GBKPL1806066 INDEX 01 00:00:00FILE "05. Philippe Jakko - The Shower.wav" WAVE TRACK 05 AUDIO TITLE "The Shower" PERFORMER "Philippe Jakko" REM COMPOSER "" ISRC GBKPL1806067 INDEX 01 00:00:00FILE "06. Philippe Jakko - Stanley in the Building.wav" WAVE TRACK 06 AUDIO TITLE "Stanley in the Building" PERFORMER "Philippe Jakko" REM COMPOSER "" ISRC GBKPL1806068 INDEX 01 00:00:00FILE "07. Philippe Jakko - Kaufman.wav" WAVE TRACK 07 AUDIO TITLE "Kaufman" PERFORMER "Philippe Jakko" REM COMPOSER "" ISRC GBKPL1806069 INDEX 01 00:00:00FILE "08. Philippe Jakko - Running.wav" WAVE TRACK 08 AUDIO TITLE "Running" PERFORMER "Philippe Jakko" REM COMPOSER "" ISRC GBKPL1806070 INDEX 01 00:00:00FILE "09. Philippe Jakko - London Night.wav" WAVE TRACK 09 AUDIO TITLE "London Night" PERFORMER "Philippe Jakko" REM COMPOSER "" ISRC GBKPL1806071 INDEX 01 00:00:00FILE "10. Philippe Jakko - Gunshot in the Street.wav" WAVE TRACK 10 AUDIO TITLE "Gunshot in the Street" PERFORMER "Philippe Jakko" REM COMPOSER "" ISRC GBKPL1806072 INDEX 01 00:00:00FILE "11. Philippe Jakko - The Crypt.wav" WAVE TRACK 11 AUDIO TITLE "The Crypt" PERFORMER "Philippe Jakko" REM COMPOSER "" ISRC GBKPL1806073 INDEX 01 00:00:00FILE "12. Philippe Jakko - A Good Scare.wav" WAVE TRACK 12 AUDIO TITLE "A Good Scare" PERFORMER "Philippe Jakko" REM COMPOSER "" ISRC GBKPL1806074 INDEX 01 00:00:00FILE "13. Philippe Jakko - Remember My Father.wav" WAVE TRACK 13 AUDIO TITLE "Remember My Father" PERFORMER "Philippe Jakko" REM COMPOSER "" ISRC GBKPL1806075 INDEX 01 00:00:00FILE "14. Philippe Jakko - Stanley.wav" WAVE TRACK 14 AUDIO TITLE "Stanley" PERFORMER "Philippe Jakko" REM COMPOSER "" ISRC GBKPL1806076 INDEX 01 00:00:00FILE "15. Philippe Jakko - Mafia at Night.wav" WAVE TRACK 15 AUDIO TITLE "Mafia at Night" PERFORMER "Philippe Jakko" REM COMPOSER "" ISRC GBKPL1806077 INDEX 01 00:00:00FILE "16. Philippe Jakko - The Chemist.wav" WAVE TRACK 16 AUDIO TITLE "The Chemist" PERFORMER "Philippe Jakko" REM COMPOSER "" ISRC GBKPL1806078 INDEX 01 00:00:00FILE "17. Philippe Jakko - Mafia on Rooftop, Pt. 2.wav" WAVE TRACK 17 AUDIO TITLE "Mafia on Rooftop, Pt. 2" PERFORMER "Philippe Jakko" REM COMPOSER "" ISRC GBKPL1806079 INDEX 01 00:00:00FILE "18. Philippe Jakko - Stanley on the Bridge.wav" WAVE TRACK 18 AUDIO TITLE "Stanley on the Bridge" PERFORMER "Philippe Jakko" REM COMPOSER "" ISRC GBKPL1806180 INDEX 01 00:00:00FILE "19. Philippe Jakko - The Dream.wav" WAVE TRACK 19 AUDIO TITLE "The Dream" PERFORMER "Philippe Jakko" REM COMPOSER "" ISRC GBKPL1806181 INDEX 01 00:00:00FILE "20. Philippe Jakko - Epilogue.wav" WAVE TRACK 20 AUDIO TITLE "Epilogue" PERFORMER "Philippe Jakko" REM COMPOSER "" ISRC GBKPL1806182 INDEX 01 00:00:00


Трекер:  [ 19-Июл-2018 12:06 ]

  

Скачать .torrent

Размер .torrent файла 17 KB


Размер: 377 MB
Хэш (hash) релиза: 644bb2451938db239e97cd72a8434966e3e39533

Еще никто не оставлял запись к записи скачать торрент Игра Кауфмана Kaufman’s Game . Будь первым!

!Обратная связь