Скачать через торрент [VIDEO] Оно It бесплатно русская версия torrent активатор

Статистика раздачи
Размер:  846 MB   |    Зарегистрирован:  2 месяца 28 дней   |    .torrent скачан:  20 раз   |   
Раздают:  1  
   
загрузка...
 
Автор Сообщение

Galfimbul

avatar Galfimbul


Оно / It

Год выпуска: 1990
Страна: США, Канада
Жанр: ужасы, фэнтези, триллер, драма, детектив
Продолжительность: 03:07:25
Перевод: русский Профессиональный (полное дублирование) Варус Видео
Субтитры: нет
Режиссер: Томми Ли Уоллес / Tommy Lee Wallace
В ролях: Тим Карри, Гарри Андерсон, Деннис Кристофер, Ричард Мейсер, Аннетт О’Тул, Тим Рейд, Джон Риттер, Ричард Томас, Сет Грин, Джонатан Брэндис и другие .
Описание: Из царства смерти появилось новое леденящее воплощение ужаса. ОНО притаилось в тени повсюду. И вот несколько школьных друзей, возвращаясь домой, должны встретиться с ЭТИМ лицом к лицу.
ОНО знает все их страхи, как бы глубоко запрятаны они ни были, ОНО черпает силу из ненависти и разочарования. Существо, не имеющее названия и четкой формы, питающееся тем гадким и злым, что притаилось в них

Релиз группы

Качество: BDRip / рип с BDRemux 1080p
Формат: MP4
Видео кодек: XviD
Аудио кодек: AAC
Видео: 432x320 AR:1.35 499 kbps 23.976 fps
Аудио: [Russian] 2ch 48 kHz 128 kbps - [Dub] Профессиональный (полное дублирование) Варус Видео
GeneralComplete name : K:\Torrents\It.1990.BDRip.XviD.480x.rip by Frost O.S.mp4Format : MPEG-4Format profile : 3GPP Media Release 5Codec ID : 3gp5 (isom/3gp5/3gp4/mp41/mp42)File size : 846 MiBDuration : 3 h 7 minOverall bit rate mode : VariableOverall bit rate : 631 kb/sEncoded date : UTC 2018-07-19 11:30:00Tagged date : UTC 2018-07-19 11:30:00

VideoID : 1Format : MPEG-4 VisualFormat profile : Advanced Simple@L5Format settings : BVOP / QPel / Custom MatrixFormat settings, BVOP : YesFormat settings, QPel : YesFormat settings, GMC : No warppointsFormat settings, Matrix : CustomCodec ID : mp4v-20Duration : 3 h 7 minBit rate mode : VariableBit rate : 499 kb/sMaximum bit rate : 2 614 kb/sWidth : 432 pixelsHeight : 320 pixelsDisplay aspect ratio : 4:3Frame rate mode : ConstantFrame rate : 23.976 (24000/1001) FPSColor space : YUVChroma subsampling : 4:2:0Bit depth : 8 bitsScan type : ProgressiveCompression mode : LossyBits/(Pixel*Frame) : 0.151Stream size : 669 MiB (79%)Title : avi@GPAC0.5.2-DEV-rev248-g39d5978-masterWriting library : XviD 1.2.1 (UTC 2008-12-04)Encoded date : UTC 2018-07-15 21:12:39Tagged date : UTC 2018-07-19 11:30:07

AudioID : 2Format : AACFormat/Info : Advanced Audio CodecFormat profile : LCCodec ID : mp4a-40-2Duration : 3 h 7 minBit rate mode : VariableBit rate : 128 kb/sMaximum bit rate : 133 kb/sChannel(s) : 2 channelsChannel positions : Front: L RSampling rate : 48.0 kHzFrame rate : 46.875 FPS (1024 SPF)Compression mode : LossyStream size : 172 MiB (20%)Title : Russian / Dub, Varus VideoEncoded date : UTC 2018-07-19 10:20:45Tagged date : UTC 2018-07-19 11:30:07


Трекер:  [ 19-Июл-2018 15:06 ]

  

Скачать .torrent

Размер .torrent файла 17 KB


Размер: 846 MB
Хэш (hash) релиза: 174cf67705152fd0cc8450b2064b279343f36023

Торренты, похожие на [VIDEO] Оно It скачать торрент

Форум Название Автор Размер S L Добавлен
Видео (Фильмы/Клипы) ·%· [VIDEO] Оно / It (Томми Ли Уоллес / Tommy Lee Wallace) [1990, ужасы, фэнтези, триллер, драма, детектив, BDRip] [3GP, 320x] Dub Варус Видео Galfimbul 675690521644 MB 0 0 1532002014

15:06

19-Июл-18

Видео (Фильмы/Клипы) ·%· [VIDEO] Оно / It (Томми Ли Уоллес / Tommy Lee Wallace) [1990, ужасы, фэнтези, триллер, драма, детектив, BDRip] [MP4, 1280x] Dub Варус Видео, MVO (Rus, Ukr), VO Горчаков, VO Живов, Original, Sub (rus, eng) Galfimbul 39078113593.64 GB 0 0 1532002002

15:06

19-Июл-18

Видео (Фильмы/Клипы) ·%· [VIDEO] Оно / It (Томми Ли Уоллес / Tommy Lee Wallace) [1990, ужасы, фэнтези, триллер, драма, детектив, BDRip] [MP4, 960x] Dub Варус Видео, MVO (Rus, Ukr), VO Горчаков, VO Живов, Original, Sub (rus, eng) Galfimbul 35425709133.3 GB 0 0 1532001993

15:06

19-Июл-18

Видео (Фильмы/Клипы) ·· [VIDEO] Оно / It (Андрес Мускетти / Andrés Muschietti) [2017, ужасы, триллер, HDRip] [3GP, 320x] Dub Blu-Ray EUR Galfimbul 485642142463 MB 0 0 1527944895

16:08

2-Июн-18

Видео (Фильмы/Клипы) ·· [VIDEO] Оно / It (Андрес Мускетти / Andrés Muschietti) [2017, ужасы, триллер, BDRip] [MP4, 1280x] Dub (Rus, Ukr), MVO Paradox&Omskbird, VO Чадов, Original, Sub (rus, ukr, eng) Galfimbul 33808629593.15 GB 0 0 1527944869

16:07

2-Июн-18

Видео (Фильмы/Клипы) ·· [VIDEO] Оно / It (Андрес Мускетти / Andrés Muschietti) [2017, ужасы, триллер, BDRip] [MP4, 960x] Dub (Rus, Ukr), MVO Paradox&Omskbird, VO Чадов, Original, Sub (rus, ukr, eng) Galfimbul 21732813632.02 GB 0 0 1527944861

16:07

2-Июн-18

Видео (Фильмы/Клипы) ·· [VIDEO] Оно / It (Андрес Мускетти / Andrés Muschietti) [2017, ужасы, триллер, BDRip] [MP4, 480x] Dub Blu-Ray EUR Galfimbul 633011347604 MB 0 0 1527944852

16:07

2-Июн-18

Еще никто не оставлял запись к записи скачать торрент [VIDEO] Оно It . Будь первым!

!Обратная связь