Скачать через торрент [VIDEO] Оно It бесплатно русская версия torrent активатор

Статистика раздачи
Размер:  3.3 GB   |    Зарегистрирован:  4 месяца 24 дня   |    .torrent скачан:  24 раза   |   
Раздают:  1  
   
загрузка...
 
Автор Сообщение

Galfimbul

avatar Galfimbul


Оно / It

Год выпуска: 1990
Страна: США, Канада
Жанр: ужасы, фэнтези, триллер, драма, детектив
Продолжительность: 03:07:25
Перевод №1: русский Профессиональный (полное дублирование) Варус Видео
Перевод №2: русский Профессиональный (многоголосый, закадровый)
Перевод №3: украинский Профессиональный (многоголосый, закадровый) ICTV
Перевод №4: русский Авторский (одноголосый, закадровый) В.Горчаков
Перевод №5: русский Авторский (одноголосый, закадровый) Ю.Живов
Оригинальная дорожка: Есть
Субтитры: русские (Full), английские (SDH)
Режиссер: Томми Ли Уоллес / Tommy Lee Wallace
В ролях: Тим Карри, Гарри Андерсон, Деннис Кристофер, Ричард Мейсер, Аннетт О’Тул, Тим Рейд, Джон Риттер, Ричард Томас, Сет Грин, Джонатан Брэндис и другие .
Описание: Из царства смерти появилось новое леденящее воплощение ужаса. ОНО притаилось в тени повсюду. И вот несколько школьных друзей, возвращаясь домой, должны встретиться с ЭТИМ лицом к лицу.
ОНО знает все их страхи, как бы глубоко запрятаны они ни были, ОНО черпает силу из ненависти и разочарования. Существо, не имеющее названия и четкой формы, питающееся тем гадким и злым, что притаилось в них

Релиз группы

Качество: BDRip / рип с BDRemux 1080p
Формат: MP4
Видео кодек: H.264
Аудио кодек: AAC
Видео: 714x536 AR:1.33 1740 kbps 23.976 fps
Аудио №1: [Russian] 2ch 48 kHz 128 kbps - [Dub] Профессиональный (полное дублирование) Варус Видео
Аудио №2: [Russian] 2ch 48 kHz 128 kbps - [MVO] Профессиональный (многоголосый, закадровый)
Аудио №3: [Ukrainian] 2ch 48 kHz 128 kbps - [MVO] Профессиональный (многоголосый, закадровый) ICTV
Аудио №4: [Russian] 2ch 48 kHz 128 kbps - [VO] Авторский (одноголосый, закадровый) В.Горчаков
Аудио №5: [Russian] 2ch 48 kHz 128 kbps - [VO] Авторский (одноголосый, закадровый) Юрий Живов
Аудио №6: [English] 2ch 48 kHz 128 kbps - Original
avs [info]: 714x536p 1:1 @ 24000/1001 fps (cfr)
x264 [info]: using SAR=1/1
x264 [info]: using cpu capabilities: MMX2 SSE2Fast SSSE3 SSE4.2 AVX FMA3 BMI2 AVX2
x264 [info]: profile High, level 4.1

x264 [info]: frame I:2145 Avg QP:20.33 size: 58496
x264 [info]: frame P:57204 Avg QP:23.70 size: 17631
x264 [info]: frame B:210263 Avg QP:25.01 size: 6235
x264 [info]: consecutive B-frames: 1.9% 2.5% 8.5% 17.3% 15.8% 42.8% 4.8% 1.8% 1.6% 1.5% 1.5%
x264 [info]: mb I I16..4: 3.7% 79.5% 16.8%
x264 [info]: mb P I16..4: 0.6% 8.5% 1.2% P16..4: 43.5% 26.8% 15.6% 0.0% 0.0% skip: 3.8%
x264 [info]: mb B I16..4: 0.0% 0.6% 0.1% B16..8: 43.9% 10.5% 3.2% direct: 6.0% skip:35.7% L0:44.1% L1:45.2% BI:10.7%
x264 [info]: 8x8 transform intra:82.1% inter:63.8%
x264 [info]: direct mvs spatial:98.3% temporal:1.7%
x264 [info]: coded y,uvDC,uvAC intra: 91.3% 80.7% 53.9% inter: 29.1% 19.3% 5.9%
x264 [info]: i16 v,h,dc,p: 35% 20% 12% 34%
x264 [info]: i8 v,h,dc,ddl,ddr,vr,hd,vl,hu: 12% 6% 5% 10% 15% 14% 14% 11% 11%
x264 [info]: i4 v,h,dc,ddl,ddr,vr,hd,vl,hu: 12% 6% 2% 10% 16% 16% 14% 12% 12%
x264 [info]: i8c dc,h,v,p: 39% 22% 21% 19%
x264 [info]: Weighted P-Frames: Y:13.8% UV:6.5%
x264 [info]: ref P L0: 47.2% 14.4% 17.1% 5.9% 5.0% 3.4% 3.2% 1.6% 1.9% 0.3% 0.0%
x264 [info]: ref B L0: 74.2% 11.6% 5.9% 3.0% 2.2% 1.8% 1.0% 0.3%
x264 [info]: ref B L1: 94.1% 5.9%
x264 [info]: kb/s:1739.41

encoded 269612 frames, 19.17 fps, 1739.42 kb/s
GeneralComplete name : K:\Torrents\It.1990.BDRip.x264.960x.rip by Frost O.S.mp4Format : MPEG-4Format profile : 3GPP Release 6 GeneralCodec ID : 3gg6 (isom/3gg6/mp42)File size : 3.30 GiBDuration : 3 h 7 minOverall bit rate mode : VariableOverall bit rate : 2 520 kb/sEncoded date : UTC 2018-07-19 11:26:46Tagged date : UTC 2018-07-19 11:26:46

VideoID : 1Format : AVCFormat/Info : Advanced Video CodecFormat profile : High@L4.1Format settings : CABAC / 9 Ref FramesFormat settings, CABAC : YesFormat settings, RefFrames : 9 framesCodec ID : avc1Codec ID/Info : Advanced Video CodingDuration : 3 h 7 minBit rate : 1 740 kb/sMaximum bit rate : 4 691 kb/sWidth : 714 pixelsHeight : 536 pixelsDisplay aspect ratio : 4:3Frame rate mode : ConstantFrame rate : 23.976 (24000/1001) FPSColor space : YUVChroma subsampling : 4:2:0Bit depth : 8 bitsScan type : ProgressiveBits/(Pixel*Frame) : 0.190Stream size : 2.28 GiB (69%)Writing library : x264 core 152 r2851 ba24899Encoding settings : cabac=1 / ref=9 / deblock=1:-1:-1 / analyse=0x3:0x113 / me=umh / subme=10 / psy=1 / psy_rd=1.00:0.00 / mixed_ref=1 / me_range=32 / chroma_me=1 / trellis=2 / 8x8dct=1 / cqm=0 / deadzone=21,11 / fast_pskip=0 / chroma_qp_offset=-2 / threads=6 / lookahead_threads=1 / sliced_threads=0 / nr=0 / decimate=0 / interlaced=0 / bluray_compat=0 / constrained_intra=0 / bframes=10 / b_pyramid=2 / b_adapt=2 / b_bias=0 / direct=3 / weightb=1 / open_gop=0 / weightp=2 / keyint=250 / keyint_min=23 / scenecut=40 / intra_refresh=0 / rc=2pass / mbtree=0 / bitrate=1740 / ratetol=1.0 / qcomp=0.65 / qpmin=0 / qpmax=69 / qpstep=4 / cplxblur=20.0 / qblur=0.5 / ip_ratio=1.40 / pb_ratio=1.25 / aq=2:0.90 / zones=267537,269611,q=30Encoded date : UTC 2018-07-18 16:34:57Tagged date : UTC 2018-07-19 11:27:53Color range : LimitedColor primaries : BT.709Transfer characteristics : BT.709Matrix coefficients : BT.709

Audio #1ID : 2Format : AACFormat/Info : Advanced Audio CodecFormat profile : LCCodec ID : mp4a-40-2Duration : 3 h 7 minBit rate mode : VariableBit rate : 128 kb/sMaximum bit rate : 133 kb/sChannel(s) : 2 channelsChannel positions : Front: L RSampling rate : 48.0 kHzFrame rate : 46.875 FPS (1024 SPF)Compression mode : LossyStream size : 172 MiB (5%)Title : Russian / Dub, Varus VideoEncoded date : UTC 2018-07-19 10:20:45Tagged date : UTC 2018-07-19 11:27:53

Audio #2ID : 3Format : AACFormat/Info : Advanced Audio CodecFormat profile : LCCodec ID : mp4a-40-2Duration : 3 h 7 minBit rate mode : VariableBit rate : 128 kb/sMaximum bit rate : 133 kb/sChannel(s) : 2 channelsChannel positions : Front: L RSampling rate : 48.0 kHzFrame rate : 46.875 FPS (1024 SPF)Compression mode : LossyStream size : 172 MiB (5%)Title : Russian / MVOEncoded date : UTC 2018-07-19 10:35:34Tagged date : UTC 2018-07-19 11:27:53

Audio #3ID : 4Format : AACFormat/Info : Advanced Audio CodecFormat profile : LCCodec ID : mp4a-40-2Duration : 3 h 7 minBit rate mode : VariableBit rate : 128 kb/sMaximum bit rate : 133 kb/sChannel(s) : 2 channelsChannel positions : Front: L RSampling rate : 48.0 kHzFrame rate : 46.875 FPS (1024 SPF)Compression mode : LossyStream size : 172 MiB (5%)Title : Ukrainian / MVO, ICTVEncoded date : UTC 2018-07-19 10:43:55Tagged date : UTC 2018-07-19 11:27:53

Audio #4ID : 5Format : AACFormat/Info : Advanced Audio CodecFormat profile : LCCodec ID : mp4a-40-2Duration : 3 h 7 minBit rate mode : VariableBit rate : 128 kb/sMaximum bit rate : 136 kb/sChannel(s) : 2 channelsChannel positions : Front: L RSampling rate : 48.0 kHzFrame rate : 46.875 FPS (1024 SPF)Compression mode : LossyStream size : 172 MiB (5%)Title : Russian / VO, GorchakovEncoded date : UTC 2018-07-19 10:52:56Tagged date : UTC 2018-07-19 11:27:53

Audio #5ID : 6Format : AACFormat/Info : Advanced Audio CodecFormat profile : LCCodec ID : mp4a-40-2Duration : 3 h 7 minBit rate mode : VariableBit rate : 128 kb/sMaximum bit rate : 137 kb/sChannel(s) : 2 channelsChannel positions : Front: L RSampling rate : 48.0 kHzFrame rate : 46.875 FPS (1024 SPF)Compression mode : LossyStream size : 172 MiB (5%)Title : Russian / VO, ZhuvovEncoded date : UTC 2018-07-19 11:02:11Tagged date : UTC 2018-07-19 11:27:53

Audio #6ID : 7Format : AACFormat/Info : Advanced Audio CodecFormat profile : LCCodec ID : mp4a-40-2Duration : 3 h 7 minBit rate mode : VariableBit rate : 128 kb/sMaximum bit rate : 136 kb/sChannel(s) : 2 channelsChannel positions : Front: L RSampling rate : 48.0 kHzFrame rate : 46.875 FPS (1024 SPF)Compression mode : LossyStream size : 172 MiB (5%)Title : English / OriginalEncoded date : UTC 2018-07-19 10:30:58Tagged date : UTC 2018-07-19 11:27:53

Text #1ID : 8Format : Timed TextCodec ID : tx3gDuration : 3 h 6 minBit rate mode : VariableBit rate : 82 b/sStream size : 112 KiB (0%)Title : Russian / FullForced : NoEncoded date : UTC 2018-07-19 11:27:53Tagged date : UTC 2018-07-19 11:27:53

Text #2ID : 9Format : Timed TextCodec ID : tx3gDuration : 3 h 7 minBit rate mode : VariableBit rate : 54 b/sStream size : 74.6 KiB (0%)Title : English / SDHForced : NoEncoded date : UTC 2018-07-19 11:27:53Tagged date : UTC 2018-07-19 11:27:53


Трекер:  [ 19-Июл-2018 15:06 ]

  

Скачать .torrent

Размер .torrent файла 17 KB


Размер: 3.3 GB
Хэш (hash) релиза: 976bf2b6d811d44ce9c3c5d7b57141ab8071a953

Торренты, похожие на [VIDEO] Оно It скачать торрент

Форум Название Автор Размер S L Добавлен
Видео (Фильмы/Клипы) ·%· [VIDEO] Оно / It (Томми Ли Уоллес / Tommy Lee Wallace) [1990, ужасы, фэнтези, триллер, драма, детектив, BDRip] [3GP, 320x] Dub Варус Видео Galfimbul 675690521644 MB 0 0 1532002014

15:06

19-Июл-18

Видео (Фильмы/Клипы) ·%· [VIDEO] Оно / It (Томми Ли Уоллес / Tommy Lee Wallace) [1990, ужасы, фэнтези, триллер, драма, детектив, BDRip] [MP4, 1280x] Dub Варус Видео, MVO (Rus, Ukr), VO Горчаков, VO Живов, Original, Sub (rus, eng) Galfimbul 39078113593.64 GB 0 0 1532002002

15:06

19-Июл-18

Видео (Фильмы/Клипы) ·%· [VIDEO] Оно / It (Томми Ли Уоллес / Tommy Lee Wallace) [1990, ужасы, фэнтези, триллер, драма, детектив, BDRip] [MP4, 480x] Dub Варус Видео Galfimbul 887198066846 MB 0 0 1532001984

15:06

19-Июл-18

Видео (Фильмы/Клипы) ·· [VIDEO] Оно / It (Андрес Мускетти / Andrés Muschietti) [2017, ужасы, триллер, HDRip] [3GP, 320x] Dub Blu-Ray EUR Galfimbul 485642142463 MB 0 0 1527944895

16:08

2-Июн-18

Видео (Фильмы/Клипы) ·· [VIDEO] Оно / It (Андрес Мускетти / Andrés Muschietti) [2017, ужасы, триллер, BDRip] [MP4, 1280x] Dub (Rus, Ukr), MVO Paradox&Omskbird, VO Чадов, Original, Sub (rus, ukr, eng) Galfimbul 33808629593.15 GB 0 0 1527944869

16:07

2-Июн-18

Видео (Фильмы/Клипы) ·· [VIDEO] Оно / It (Андрес Мускетти / Andrés Muschietti) [2017, ужасы, триллер, BDRip] [MP4, 960x] Dub (Rus, Ukr), MVO Paradox&Omskbird, VO Чадов, Original, Sub (rus, ukr, eng) Galfimbul 21732813632.02 GB 0 0 1527944861

16:07

2-Июн-18

Видео (Фильмы/Клипы) ·· [VIDEO] Оно / It (Андрес Мускетти / Andrés Muschietti) [2017, ужасы, триллер, BDRip] [MP4, 480x] Dub Blu-Ray EUR Galfimbul 633011347604 MB 0 0 1527944852

16:07

2-Июн-18

Еще никто не оставлял запись к записи скачать торрент [VIDEO] Оно It . Будь первым!

!Обратная связь