Скачать через торрент Маленький принц Le Petit Prince Фильм бесплатно в хорошем качестве torrent

Скачивайте на UnionPeer.org фильмы через торрент без регистрации. Новинки кино в хорошем качестве через торрент. На UnionPeer.org можно скачать через торрент фильмы 2014 и 2015 годов. Самые новые фильмы.

Скачать торрент Маленький принц Le Petit Prince бесплатно через .torrent фильм мультфильм сериал

Статистика раздачи
Размер:  1.46 GB   |    Зарегистрирован:  4 месяца 23 дня   |    .torrent скачан:  38 раз   |   
Раздают:  1  
   
загрузка...
 
Автор Сообщение

Galfimbul

avatar Galfimbul



Маленький принц
Le Petit Prince


Страна: Франция, Канада
Жанр: мультфильм, фэнтези, драма, приключения
Продолжительность: 01:46:34
Год выпуска: 2015
Перевод: Профессиональный (дублированный) Студия «Industrial Productions», Эстония
Русские субтитры: нет
Режиссёр: Марк Осборн / Mark Osborne
Роли дублировали: Эдуард Томан, Екатерина Кордас, Александр Жиленко, Екатерина Яковлева, Олег Давидович, Артём Гареев, Юрий Жилин, Олег Рогачёв, Алина Давидович, Инна Нечаева
Описание: Мир невозможен без фантазии и приключений. По крайней мере в это верит добродушный старик авиатор, по соседству с которым недавно поселилась одна очень педантичная мама со своей прилежной дочкой. Жизнь девочки подчинена строгому учебному плану, в котором время на друзей предусмотрено только следующим летом. Однако этот тщательно выстроенный план трещит по швам, когда в жизнь девочки врывается странный сосед с его невероятными рассказами о Маленьком Принце и далеких звездах. Осталось только починить самолет, и в путь! Так начинается большое путешествие девочки - полное опасностей, волшебства, юмора и настоящей дружбы.
Семпл: http://multi-up.com/1204184
Качество: HDRip
Формат: AVI
Видео: 720x304 (2.37:1), 23.976 fps, XviD build 67 ~1766 kbps avg, 0.34 bit/pixel
Аудио: 48 kHz, AC3 Dolby Digital, 2 ch, ~192 kbps [rus]
Субтитры: отсутствуют
Общее
Полное имя                               : E:\Le petit prince (2015) HDRip DUB [Industrial Productions].avi
Формат                                   : AVI
Формат/Информация                        : Audio Video Interleave
Размер файла                             : 1,46 Гбайт
Продолжительность                        : 1 ч. 46 м.
Общий поток                              : 1967 Кбит/сек
Программа кодирования                    : VirtualDubModUkr 1.5.10.2 (build 2542/release)
Библиотека кодирования                   : VirtualDubMod build 2542/release

Видео
Идентификатор                            : 0
Формат                                   : MPEG-4 Visual
Профиль формата                          : Advanced Simple@L5
Настройки формата                        : BVOP1
Параметр BVOP формата                    : 1
Параметр QPel формата                    : Нет
Параметр GMC формата                     : Без точки перехода
Параметр матрицы формата                 : Default (MPEG)
Идентификатор кодека                     : XVID
Идентификатор кодека/Подсказка           : XviD
Продолжительность                        : 1 ч. 46 м.
Битрейт                                  : 1766 Кбит/сек
Ширина                                   : 720 пикселей
Высота                                   : 304 пикселя
Соотношение сторон                       : 2,35:1
Частота кадров                           : 23,976 (24000/1001) кадра/сек
Цветовое пространство                    : YUV
Субдискретизация насыщенности            : 4:2:0
Битовая глубина                          : 8 бит
Тип развёртки                            : Прогрессивная
Метод сжатия                             : С потерями
Бит/(Пиксели*Кадры)                      : 0.336
Размер потока                            : 1,31 Гбайт (90%)
Библиотека кодирования                   : XviD 67

Аудио
Идентификатор                            : 1
Формат                                   : AC-3
Формат/Информация                        : Audio Coding 3
Идентификатор кодека                     : 2000
Продолжительность                        : 1 ч. 46 м.
Вид битрейта                             : Постоянный
Битрейт                                  : 192 Кбит/сек
Каналы                                   : 2 канала
Расположение каналов                     : Front: L R
Частота                                  : 48,0 КГц
Частота кадров                           : 31,250 кадров/сек (1536 SPF)
Битовая глубина                          : 16 бит
Метод сжатия                             : С потерями
Размер потока                            : 146 Мбайт (10%)
Выравнивание                             : Разделение по промежуткам
Продолжительность промежутка             : 42  мс. (1,00 видеокадр)
Время предзагрузки промежутка            : 500  мс.
ServiceKind/String                       : Complete Main



Трекер:  [ 19-Июл-2018 18:30 ]

  

Скачать .torrent

Размер .torrent файла 15 KB


Размер: 1.46 GB
Хэш (hash) релиза: 7b5b8934e5486bc8148bd64409f84699b398eea1
Подписка на обновления:

Торренты, похожие на Маленький принц Le Petit Prince скачать торрент

Форум Название Автор Размер S L Добавлен
Мультфильмы до 2016 ·· Маленький принц / Le Petit Prince / The Little Prince (Марк Осборн / Mark Osborne) [2015, Франция, Канада, мультфильм, фэнтези, драма, приключения, BDRip 1080p] Dub + Sub Rus + Original Eng Galfimbul 82628782497.7 GB 0 0 1470246645

20:50

3-Авг-16

Мультфильмы до 2016 ·· Маленький принц / Le Petit Prince / The Little Prince (Марк Осборн / Mark Osborne) [2015, Франция, Канада, мультфильм, фэнтези, приключения, BDRemux 1080p] DUB + FRE + ENG + SUBs Galfimbul 3022633233928.15 GB 0 0 1454259720

20:02

31-Янв-16

Мультфильмы до 2016 ·· Маленький принц / The Little Prince / Le Petit Prince (Марк Осборн / Mark Osborne) [2015, Франция, Канада, мультфильм, фэнтези, приключения, BDRip-AVC] Dub + Original Eng + Sub Rus, Eng Galfimbul 785001744749 MB 0 0 1466539066

22:57

21-Июн-16

Мультфильмы до 2016 ·· Маленький принц / The Little Prince / Le Petit Prince (Марк Осборн / Mark Osborne) [2015, Франция, фэнтези, приключения, BDRip 720p] DUB (iTunes) + Sub Rus, Eng, Fre + Original Fre, Eng Galfimbul 34526323373.22 GB 0 0 1454322312

13:25

1-Фев-16

Мультфильмы до 2016 ·· Маленький принц / The Little Prince / Le Petit Prince (Марк Осборн / Mark Osborne) [2015, Франция, фэнтези, приключения, BDRip 1080p] Galfimbul 1177806719110.97 GB 0 0 1448952108

09:41

1-Дек-15

3D Мультфильмы ·· Маленький принц в 3Д / Le Petit Prince / The Little Prince 3D (Марк Осборн / Mark Osborne) [2015, Мультфильм, Фэнтези, BDrip-AVC] Half OverUnder / Вертикальная анаморфная стереопара Galfimbul 42893594683.99 GB 0 0 1467142106

22:28

28-Июн-16

3D Мультфильмы ·· Маленький принц в 3Д / Le Petit Prince / The Little Prince 3D (Марк Осборн / Mark Osborne) [2015, Мультфильм, Фэнтези, BDrip-AVC] iTunes, Half OverUnder / Вертикальная анаморфная стереопара Galfimbul 40844433923.8 GB 0 0 1454537038

01:03

4-Фев-16

Еще никто не оставлял запись к записи скачать торрент Маленький принц Le Petit Prince . Будь первым!

!Обратная связь