Скачать через торрент Элементарные открытия Фильм бесплатно в хорошем качестве torrent

Скачивайте на UnionPeer.org фильмы через торрент без регистрации. Новинки кино в хорошем качестве через торрент. На UnionPeer.org можно скачать через торрент фильмы 2014 и 2015 годов. Самые новые фильмы.

Скачать торрент Элементарные открытия бесплатно через .torrent фильм мультфильм сериал

Статистика раздачи
Размер:  2.81 GB   |    Зарегистрирован:  3 месяца 26 дней   |    .torrent скачан:  37 раз   |   
Раздают:  1  
   
загрузка...
 
Автор Сообщение

Galfimbul

avatar Galfimbul


Элементарные открытия

Год выпуска: 2017
Страна: Россия
Студия: ООО "Телеиндустрия"
Жанр: Научно-популярный
Продолжительность: 2 x ~ 00:25:29
Перевод: Не требуется
Режиссер: Алексей Чукарев

Описание: История открытий новейших химических элементов.

Сэмпл: https://www.sendspace.com/file/n9i1x8

Тип релиза: HDTV 1080i
Контейнер: TS

Видео: 1920x1080 (16:9), 25 fps, AVC (x264), Main@L4, 7308 kbps, 25fps, 0.141 bit/pixel
Аудио: Русский 48 kHz, MPEG Layer 2, 2 ch, ~192.00 kbps avg
1. История познания
Фильм расскажет об истории пополнения периодической системы Менделеева новыми элементами, о сложностях на пути научных исследований и о том, какое применение открытые за последние десятилетия элементы получили уже сейчас.

2. В поисках таинственного острова
Где и как сегодня ведутся новые исследования? Какие технологии для этого используются? Какое новое оборудование создаётся? Во второй части программы будет рассказано о четырёх новых элементах, которые удалось синтезировать при непосредственном участии российских учёных, о том, насколько важны эти открытия, и какие они несут перспективы.
Complete name : F:\Наладки\Элементарные открытия_ История познания.tsFormat : MPEG-TSFile size : 1.41 GiBDuration : 25 min 29 sOverall bit rate mode : VariableOverall bit rate : 7 892 kb/s

VideoID : 1926 (0x786)Menu ID : 19004 (0x4A3C)Format : AVCFormat/Info : Advanced Video CodecFormat profile : Main@L4Format settings : CABAC / 4 Ref FramesFormat settings, CABAC : YesFormat settings, ReFrames : 4 framesCodec ID : 27Duration : 25 min 29 sBit rate : 7 308 kb/sWidth : 1 920 pixelsHeight : 1 080 pixelsDisplay aspect ratio : 16:9Frame rate : 25.000 FPSColor space : YUVChroma subsampling : 4:2:0Bit depth : 8 bitsScan type : InterlacedScan type, store method : Separated fieldsScan order : Top Field FirstBits/(Pixel*Frame) : 0.141Stream size : 1.30 GiB (93%)Color range : LimitedColor primaries : BT.709Transfer characteristics : BT.709Matrix coefficients : BT.709

AudioID : 1927 (0x787)Menu ID : 19004 (0x4A3C)Format : MPEG AudioFormat version : Version 1Format profile : Layer 2Codec ID : 3Duration : 25 min 29 sBit rate mode : ConstantBit rate : 192 kb/sChannel(s) : 2 channelsSampling rate : 48.0 kHzFrame rate : 41.667 FPS (1152 SPF)Compression mode : LossyStream size : 35.0 MiB (2%)Language : Russian

Complete name : F:\Наладки\Элементарные открытия_ В поисках таинственного острова.tsFormat : MPEG-TSFile size : 1.41 GiBDuration : 25 min 48 sOverall bit rate mode : VariableOverall bit rate : 7 809 kb/s

VideoID : 1926 (0x786)Menu ID : 19004 (0x4A3C)Format : AVCFormat/Info : Advanced Video CodecFormat profile : Main@L4Format settings : CABAC / 4 Ref FramesFormat settings, CABAC : YesFormat settings, ReFrames : 4 framesCodec ID : 27Duration : 25 min 48 sBit rate : 7 229 kb/sWidth : 1 920 pixelsHeight : 1 080 pixelsDisplay aspect ratio : 16:9Frame rate : 25.000 FPSColor space : YUVChroma subsampling : 4:2:0Bit depth : 8 bitsScan type : InterlacedScan type, store method : Separated fieldsScan order : Top Field FirstBits/(Pixel*Frame) : 0.139Stream size : 1.30 GiB (93%)Color range : LimitedColor primaries : BT.709Transfer characteristics : BT.709Matrix coefficients : BT.709

AudioID : 1927 (0x787)Menu ID : 19004 (0x4A3C)Format : MPEG AudioFormat version : Version 1Format profile : Layer 2Codec ID : 3Duration : 25 min 48 sBit rate mode : ConstantBit rate : 192 kb/sChannel(s) : 2 channelsSampling rate : 48.0 kHzFrame rate : 41.667 FPS (1152 SPF)Compression mode : LossyStream size : 35.5 MiB (2%)Language : Russian


Трекер:  [ 20-Июл-2018 19:36 ]

  

Скачать .torrent

Размер .torrent файла 14 KB


Размер: 2.81 GB
Хэш (hash) релиза: ad635b2ad8a01ee9ae22afa414759b4eb650122e
Подписка на обновления:

Еще никто не оставлял запись к записи скачать торрент Элементарные открытия . Будь первым!

!Обратная связь